<?xml version="1.0" standalone="no"?>
<!DOCTYPE svg PUBLIC "-//W3C//DTD SVG 1.1//EN" "http://www.w3.org/Graphics/SVG/1.1/DTD/svg11.dtd" >
<svg xmlns="http://www.w3.org/2000/svg" xmlns:xlink="http://www.w3.org/1999/xlink" version="1.1">
<metadata>
Created by FontForge 20170731 at Wed Sep 20 15:35:56 2023
 By Aleksey,,,
Copyright (C) 2004, 2012 Hoefler &#38; Frere-Jones. http://www.typography.com
</metadata>
<defs>
<font id="Tungsten-Bold" horiz-adv-x="1024" >
  <font-face 
    font-family="Tungsten Bold"
    font-weight="400"
    font-stretch="normal"
    units-per-em="2048"
    panose-1="0 0 0 0 0 0 0 0 0 0"
    ascent="1638"
    descent="-410"
    x-height="1147"
    cap-height="1434"
    bbox="-68 -504 1319 1806"
    underline-thickness="102"
    underline-position="-307"
    unicode-range="U+0020-FB04"
  />
<missing-glyph 
d="M0 -410v2048h1024v-2048h-1024zM145 1536l367 -799l367 799h-734zM102 -156l353 770l-353 770v-1540zM922 1384l-353 -770l353 -770v1540zM512 492l-367 -799h734z" />
    <glyph glyph-name=".notdef" 
d="M0 -410v2048h1024v-2048h-1024zM145 1536l367 -799l367 799h-734zM102 -156l353 770l-353 770v-1540zM922 1384l-353 -770l353 -770v1540zM512 492l-367 -799h734z" />
    <glyph glyph-name=".null" horiz-adv-x="0" 
 />
    <glyph glyph-name="nonmarkingreturn" horiz-adv-x="682" 
 />
    <glyph glyph-name="space" unicode=" " horiz-adv-x="278" 
 />
    <glyph glyph-name="exclam" unicode="!" horiz-adv-x="376" 
d="M326 1104l-62 -694h-151l-62 694v330h275v-330zM317 315v-315h-258v315h258z" />
    <glyph glyph-name="quotedbl" unicode="&#x22;" horiz-adv-x="591" 
d="M295 1434l-86 -566h-180l32 566h234zM575 1434l-86 -566h-180l33 566h233z" />
    <glyph glyph-name="numbersign" unicode="#" horiz-adv-x="692" 
d="M584 1438v-205l84 22v-297l-84 -22v-303l84 22v-297l-84 -22v-340h-185v293l-106 -27v-266h-184v219l-84 -20v297l84 20v303l-84 -20v297l84 20v326h184v-279l106 27v252h185zM293 862v-303l106 27v303z" />
    <glyph glyph-name="dollar" unicode="$" horiz-adv-x="759" 
d="M604 748q65 -47 90 -96.5t25 -129.5v-262q0 -260 -256 -266v-152h-164v152q-129 3 -192.5 68.5t-63.5 197.5v299h274v-272q0 -51 52 -51h22q51 0 51 51v174q0 33 -11 53t-38 39l-235 174q-65 46 -90 96.5t-25 128.5v222q0 260 254 266v143h164v-143q254 -6 254 -266v-256
h-275v229q0 51 -51 51h-18q-52 0 -52 -51v-133q0 -33 11.5 -53t38.5 -39z" />
    <glyph glyph-name="percent" unicode="%" horiz-adv-x="921" 
d="M182 559q-67 0 -106 42t-39 112v579q0 69 39.5 111.5t105.5 42.5h152q67 0 106 -42t39 -112v-329l139 475h164l-188 -564h145q67 0 106.5 -42t39.5 -111v-580q0 -69 -40 -111t-106 -42h-151q-67 0 -106.5 42t-39.5 111v330l-139 -475h-164l187 563h-144zM285 1272h-49
q-9 0 -16 -10t-7 -23v-479q0 -13 7 -23t16 -10h49q9 0 15.5 9.5t6.5 23.5v479q0 13 -6.5 23t-15.5 10zM686 707h-49q-9 0 -16 -10t-7 -23v-479q0 -13 7 -23t16 -10h49q9 0 16 10t7 23v479q0 13 -7 23t-16 10z" />
    <glyph glyph-name="ampersand" unicode="&#x26;" horiz-adv-x="950" 
d="M680 0l-66 117q-35 -68 -86 -98.5t-139 -30.5h-108q-250 0 -250 250v288q0 80 21.5 138.5t74.5 103.5l80 70l-47 86q-30 57 -39.5 100.5t-9.5 110.5v45q0 266 266 266h123q266 0 266 -266v-191h-264v162q0 51 -51 51h-21q-51 0 -51 -51v-29q0 -63 41 -137l178 -328
l61 193h281l-170 -473l205 -377h-295zM383 225q43 0 59 45l31 78l-137 250q-20 -19 -27.5 -38.5t-7.5 -53.5v-236q0 -45 45 -45h37z" />
    <glyph glyph-name="quotesingle" unicode="'" horiz-adv-x="319" 
d="M303 1434l-86 -566h-188l32 566h242z" />
    <glyph glyph-name="parenleft" unicode="(" horiz-adv-x="417" 
d="M406 -33l-125 -53q-98 98 -145 178.5t-67 186.5t-20 284v307q0 178 19.5 284t67 187t145.5 179l125 -54q-71 -99 -103 -169.5t-46.5 -166t-14.5 -258.5v-311q0 -163 14.5 -258.5t46.5 -166t103 -169.5z" />
    <glyph glyph-name="parenright" unicode=")" horiz-adv-x="417" 
d="M137 -86l-125 53q71 99 103 169.5t46.5 166t14.5 258.5v311q0 163 -14.5 258.5t-46.5 166t-103 169.5l125 54q98 -98 145.5 -179t67 -187t19.5 -284v-307q0 -178 -20 -284t-67 -186.5t-145 -178.5z" />
    <glyph glyph-name="asterisk" unicode="*" horiz-adv-x="546" 
d="M338 1438l-6 -189l180 105h6v-137l-141 -72l141 -72v-137h-6l-178 102l4 -186h-129l4 186l-178 -102h-6v137l139 72l-139 72v137h6l178 -105l-4 189h129z" />
    <glyph glyph-name="plus" unicode="+" horiz-adv-x="643" 
d="M225 428v209h-205v182h205v209h193v-209h205v-182h-205v-209h-193z" />
    <glyph glyph-name="comma" unicode="," horiz-adv-x="339" 
d="M303 315v-182q0 -107 -18 -157.5t-88 -145.5l-54 -72l-108 31l28 59q53 109 64 152h-90v315h266z" />
    <glyph glyph-name="hyphen" unicode="-" horiz-adv-x="454" 
d="M18 717h418v-246h-418v246z" />
    <glyph glyph-name="period" unicode="." horiz-adv-x="339" 
d="M303 315v-315h-266v315h266z" />
    <glyph glyph-name="slash" unicode="/" horiz-adv-x="454" 
d="M453 1499l-267 -1565h-184l266 1565h185z" />
    <glyph glyph-name="zero" unicode="0" horiz-adv-x="802" 
d="M756 254q0 -266 -267 -266h-176q-266 0 -266 266v926q0 266 266 266h176q267 0 267 -266v-926zM471 1149q0 51 -51 51h-37q-51 0 -51 -51v-864q0 -52 51 -52h37q51 0 51 52v864z" />
    <glyph glyph-name="one" unicode="1" horiz-adv-x="481" 
d="M426 1440v-1440h-281v1106h-135v199l19 2q57 6 91.5 28.5t72.5 71.5l24 33h209z" />
    <glyph glyph-name="two" unicode="2" horiz-adv-x="747" 
d="M150 563l231 291q27 35 38 60.5t11 58.5v176q0 51 -51 51h-19q-51 0 -51 -51v-238h-270v269q0 266 266 266h141q267 0 267 -266v-215q0 -78 -25 -142.5t-90 -146.5l-231 -291q-28 -35 -39 -61t-11 -58v-10h396v-256h-678v274q0 80 25 143.5t90 145.5z" />
    <glyph glyph-name="three" unicode="3" horiz-adv-x="763" 
d="M438 285v266q0 51 -51 51h-217v252h213q51 0 51 51v244q0 51 -51 51h-23q-51 0 -51 -51v-172h-270v203q0 266 266 266h148q266 0 266 -266v-226q0 -168 -119 -213q65 -19 94 -62.5t29 -121.5v-303q0 -266 -266 -266h-156q-266 0 -266 266v229h270v-198q0 -52 51 -52h31
q51 0 51 52z" />
    <glyph glyph-name="four" unicode="4" horiz-adv-x="759" 
d="M23 217v289l235 928h391v-969h105v-248h-105v-217h-258v217h-368zM391 465v612l-151 -612h151z" />
    <glyph glyph-name="five" unicode="5" horiz-adv-x="772" 
d="M733 719v-465q0 -266 -266 -266h-156q-266 0 -266 266v260h277v-229q0 -52 51 -52h26q52 0 52 52v346q0 59 -52 59q-23 0 -42 -13.5t-44 -45.5h-260v803h660v-256h-394l-4 -308q46 41 89.5 60.5t107.5 19.5h4q100 0 158.5 -62t58.5 -169z" />
    <glyph glyph-name="six" unicode="6" horiz-adv-x="786" 
d="M332 1149v-301q83 39 170 39h10q107 0 169 -65.5t62 -172.5v-395q0 -266 -266 -266h-164q-266 0 -266 266v926q0 266 266 266h158q266 0 266 -266v-197h-276v166q0 51 -51 51h-27q-51 0 -51 -51zM332 627v-342q0 -52 51 -52h27q51 0 51 52v307q0 26 -10.5 36.5
t-40.5 10.5q-46 0 -78 -12z" />
    <glyph glyph-name="seven" unicode="7" horiz-adv-x="645" 
d="M346 1178h-330v256h605v-297l-250 -1137h-287z" />
    <glyph glyph-name="eight" unicode="8" horiz-adv-x="778" 
d="M311 1446h156q266 0 266 -266v-222q0 -168 -119 -213q65 -19 94 -62.5t29 -121.5v-307q0 -266 -266 -266h-164q-266 0 -266 266v307q0 78 29 121.5t94 62.5q-119 45 -119 213v222q0 266 266 266zM322 563v-282q0 -52 51 -52h33q51 0 51 52v282q0 51 -51 51h-33
q-51 0 -51 -51zM375 852h28q52 0 52 51v250q0 51 -52 51h-28q-51 0 -51 -51v-250q0 -51 51 -51z" />
    <glyph glyph-name="nine" unicode="9" horiz-adv-x="786" 
d="M403 233q52 0 52 52v282q-79 -37 -168 -37h-11q-107 0 -169 65.5t-62 172.5v412q0 266 266 266h162q266 0 266 -266v-926q0 -266 -266 -266h-160q-266 0 -266 266v180h277v-149q0 -52 51 -52h28zM455 791v358q0 51 -52 51h-24q-51 0 -51 -51v-324q0 -26 10.5 -36.5
t40.5 -10.5q41 0 76 13z" />
    <glyph glyph-name="colon" unicode=":" horiz-adv-x="339" 
d="M303 315v-315h-266v315h266zM303 1147v-316h-266v316h266z" />
    <glyph glyph-name="semicolon" unicode=";" horiz-adv-x="339" 
d="M303 315v-182q0 -107 -18 -157.5t-88 -145.5l-54 -72l-108 31l28 59q53 109 64 152h-90v315h266zM303 1147v-316h-266v316h266z" />
    <glyph glyph-name="less" unicode="&#x3c;" horiz-adv-x="643" 
d="M31 850l577 197v-201l-413 -115l413 -115v-204l-577 196v242z" />
    <glyph glyph-name="equal" unicode="=" horiz-adv-x="643" 
d="M31 963h581v-183h-581v183zM31 676h581v-182h-581v182z" />
    <glyph glyph-name="greater" unicode="&#x3e;" horiz-adv-x="643" 
d="M35 1047l577 -197v-242l-577 -196v204l414 115l-414 115v201z" />
    <glyph glyph-name="question" unicode="?" horiz-adv-x="714" 
d="M317 836l39 43q28 31 39 54.5t11 55.5v160q0 51 -52 51h-18q-51 0 -51 -51v-229h-258v260q0 266 266 266h129q266 0 266 -266v-191q0 -78 -25 -138t-90 -132l-94 -107q-25 -29 -34 -55t-9 -68v-100h-205v211q0 84 16 129t70 107zM463 315v-315h-258v315h258z" />
    <glyph glyph-name="at" unicode="@" 
d="M809 55h-94q-104 0 -150 76q-44 -42 -79.5 -60t-84.5 -18q-69 0 -109 43t-40 123v230q0 88 30 135t105 73l164 56v166q0 32 -33 32h-16q-33 0 -33 -32v-131h-207v167q0 185 199 185h108q195 0 195 -185v-747q0 -23 10 -33t33 -10h6q41 0 61.5 23.5t20.5 80.5v740
q0 143 -59 204.5t-187 61.5h-274q-128 0 -187 -61.5t-59 -204.5v-787q0 -143 59 -204.5t187 -61.5h516v-70h-516q-165 0 -242.5 79t-77.5 257v787q0 178 77.5 257t242.5 79h274q165 0 242.5 -79t77.5 -257v-740q0 -88 -38.5 -131t-121.5 -43zM506 254q17 0 45 8v262l-53 -22
q-39 -16 -39 -68v-139q0 -41 47 -41z" />
    <glyph glyph-name="A" unicode="A" horiz-adv-x="788" 
d="M778 0h-284l-23 209h-180l-21 -209h-260l189 1434h391zM381 1083l-64 -624h127z" />
    <glyph glyph-name="B" unicode="B" horiz-adv-x="784" 
d="M621 741q64 -19 93 -62.5t29 -121.5v-291q0 -266 -266 -266h-426v1434h422q266 0 266 -267v-213q0 -90 -29.5 -140t-88.5 -73zM455 1137q0 51 -52 51h-67v-340h67q52 0 52 51v238zM336 608v-362h72q51 0 51 51v260q0 51 -51 51h-72z" />
    <glyph glyph-name="C" unicode="C" horiz-adv-x="800" 
d="M473 633h283v-379q0 -266 -267 -266h-176q-266 0 -266 266v926q0 266 266 266h172q267 0 267 -266v-336h-283v305q0 51 -51 51h-33q-51 0 -51 -51v-864q0 -52 51 -52h37q51 0 51 52v348z" />
    <glyph glyph-name="D" unicode="D" horiz-adv-x="808" 
d="M51 0v1434h404q155 0 231 -76.5t76 -231.5v-819q0 -155 -76 -231t-231 -76h-404zM338 1188v-942h57q80 0 80 80v782q0 80 -80 80h-57z" />
    <glyph glyph-name="E" unicode="E" horiz-adv-x="628" 
d="M51 1434h533v-256h-246v-322h235v-256h-235v-344h250v-256h-537v1434z" />
    <glyph glyph-name="F" unicode="F" horiz-adv-x="602" 
d="M51 1434h522v-256h-235v-336h225v-256h-225v-586h-287v1434z" />
    <glyph glyph-name="G" unicode="G" horiz-adv-x="811" 
d="M483 569h-90v240h371v-555q0 -266 -266 -266h-185q-266 0 -266 266v926q0 266 266 266h181q266 0 266 -266v-275h-283v244q0 51 -51 51h-41q-51 0 -51 -51v-864q0 -52 51 -52h47q51 0 51 52v284z" />
    <glyph glyph-name="H" unicode="H" horiz-adv-x="819" 
d="M338 856h143v578h287v-1434h-287v600h-143v-600h-287v1434h287v-578z" />
    <glyph glyph-name="I" unicode="I" horiz-adv-x="393" 
d="M340 1434v-1434h-287v1434h287z" />
    <glyph glyph-name="J" unicode="J" horiz-adv-x="518" 
d="M469 1434v-1168q0 -266 -266 -266h-176v256h104q51 0 51 51v1127h287z" />
    <glyph glyph-name="K" unicode="K" horiz-adv-x="790" 
d="M786 0h-303l-145 678v-678h-287v1434h287v-674l160 674h297l-189 -705z" />
    <glyph glyph-name="L" unicode="L" horiz-adv-x="569" 
d="M51 1434h287v-1178h207v-256h-494v1434z" />
    <glyph glyph-name="M" unicode="M" horiz-adv-x="1101" 
d="M389 0l-108 948v-948h-230v1434h414l82 -869l88 869h416v-1434h-283v938l-109 -938h-270z" />
    <glyph glyph-name="N" unicode="N" horiz-adv-x="802" 
d="M752 0h-279l-182 780l4 -364l4 -416h-248v1434h293l166 -711l-4 414l-2 297h248v-1434z" />
    <glyph glyph-name="O" unicode="O" horiz-adv-x="811" 
d="M764 254q0 -266 -266 -266h-185q-266 0 -266 266v926q0 266 266 266h185q266 0 266 -266v-926zM477 1149q0 51 -51 51h-41q-51 0 -51 -51v-864q0 -52 51 -52h41q51 0 51 52v864z" />
    <glyph glyph-name="P" unicode="P" horiz-adv-x="765" 
d="M338 498v-498h-287v1434h420q266 0 266 -267v-403q0 -266 -266 -266h-133zM451 1137q0 51 -52 51h-61v-445h61q52 0 52 52v342z" />
    <glyph glyph-name="Q" unicode="Q" horiz-adv-x="811" 
d="M764 1180v-906q0 -150 -90 -206l127 -54l-135 -211l-304 185h-49q-266 0 -266 266v926q0 266 266 266h185q266 0 266 -266zM477 285v864q0 51 -51 51h-41q-51 0 -51 -51v-864q0 -52 51 -52h41q51 0 51 52z" />
    <glyph glyph-name="R" unicode="R" horiz-adv-x="792" 
d="M623 678q66 -19 95.5 -62.5t29.5 -121.5v-494h-287v492q0 51 -51 51h-72v-543h-287v1434h428q266 0 266 -267v-276q0 -168 -122 -213zM459 1133q0 51 -51 51h-70v-398h70q51 0 51 52v295z" />
    <glyph glyph-name="S" unicode="S" horiz-adv-x="770" 
d="M621 743q65 -47 89.5 -96t24.5 -129v-264q0 -266 -266 -266h-160q-266 0 -266 266v305h281v-278q0 -52 51 -52h26q52 0 52 52v172q0 33 -11.5 53t-38.5 39l-245 182q-65 46 -90 96.5t-25 128.5v228q0 266 266 266h156q266 0 266 -266v-262h-280v235q0 51 -52 51h-22
q-51 0 -51 -51v-135q0 -33 11 -53t38 -39z" />
    <glyph glyph-name="T" unicode="T" horiz-adv-x="675" 
d="M481 0h-286v1178h-175v256h635v-256h-174v-1178z" />
    <glyph glyph-name="U" unicode="U" horiz-adv-x="804" 
d="M756 1434v-1180q0 -266 -267 -266h-174q-266 0 -266 266v1180h287v-1149q0 -52 51 -52h31q51 0 51 52v1149h287z" />
    <glyph glyph-name="V" unicode="V" horiz-adv-x="782" 
d="M580 0h-377l-193 1434h291l100 -1018l105 1018h266z" />
    <glyph glyph-name="W" unicode="W" horiz-adv-x="1155" 
d="M461 1434h270l82 -762l74 762h254l-174 -1434h-316l-76 653l-71 -653h-316l-174 1434h291l74 -768z" />
    <glyph glyph-name="X" unicode="X" horiz-adv-x="778" 
d="M762 1434l-176 -693l180 -741h-299l-86 442l-96 -442h-273l178 692l-174 742h299l80 -439l94 439h273z" />
    <glyph glyph-name="Y" unicode="Y" horiz-adv-x="759" 
d="M526 510v-510h-286v489l-242 945h299l96 -488l103 488h272z" />
    <glyph glyph-name="Z" unicode="Z" horiz-adv-x="641" 
d="M336 1178h-293v256h567v-297l-303 -881h303v-256h-577v297z" />
    <glyph glyph-name="bracketleft" unicode="[" horiz-adv-x="409" 
d="M397 66v-132h-336v1565h336v-131h-153v-1302h153z" />
    <glyph glyph-name="backslash" unicode="\" horiz-adv-x="454" 
d="M268 -66l-266 1565h184l267 -1565h-185z" />
    <glyph glyph-name="bracketright" unicode="]" horiz-adv-x="409" 
d="M12 -66v132h154v1302h-154v131h336v-1565h-336z" />
    <glyph glyph-name="asciicircum" unicode="^" horiz-adv-x="819" 
d="M481 1434l228 -420h-179l-120 229l-121 -229h-178l227 420h143z" />
    <glyph glyph-name="underscore" unicode="_" horiz-adv-x="972" 
d="M-4 -45h981v-184h-981v184z" />
    <glyph glyph-name="grave" unicode="`" 
d="M625 1454l80 -235h-195l-150 235h265z" />
    <glyph glyph-name="a" unicode="a" horiz-adv-x="718" 
d="M37 174v258q0 95 33 142.5t118 76.5l222 76v160q0 45 -45 45h-17q-49 0 -49 -45v-139h-250v161q0 250 250 250h127q250 0 250 -250v-909h-262v76q-53 -45 -97.5 -66.5t-101.5 -21.5h-4q-84 0 -129 48t-45 138zM346 221q37 0 64 10v281l-76 -35q-23 -11 -31 -23.5
t-8 -39.5v-148q0 -24 12 -34.5t39 -10.5z" />
    <glyph glyph-name="b" unicode="b" horiz-adv-x="745" 
d="M45 0v1454h270v-387q50 45 95.5 68.5t101.5 23.5h4q90 0 139.5 -50.5t49.5 -147.5v-775q0 -97 -49.5 -147.5t-139.5 -50.5h-4q-101 0 -201 80v-68h-266zM315 909v-671q35 -13 66 -13q29 0 41 10.5t12 34.5v607q0 24 -12 34.5t-41 10.5q-31 0 -66 -13z" />
    <glyph glyph-name="c" unicode="c" horiz-adv-x="724" 
d="M422 672v205q0 45 -45 45h-21q-45 0 -45 -45v-607q0 -45 45 -45h23q45 0 45 45v242h264v-274q0 -250 -250 -250h-147q-250 0 -250 250v671q0 250 250 250h145q250 0 250 -250v-237h-264z" />
    <glyph glyph-name="d" unicode="d" horiz-adv-x="745" 
d="M700 1454v-1454h-266v80q-102 -92 -201 -92h-4q-90 0 -139 50.5t-49 147.5v775q0 97 49 147.5t139 50.5h4q97 0 197 -80v375h270zM430 238v671q-35 13 -65 13q-29 0 -41.5 -10.5t-12.5 -34.5v-607q0 -24 12.5 -34.5t41.5 -10.5q30 0 65 13z" />
    <glyph glyph-name="e" unicode="e" horiz-adv-x="720" 
d="M680 465h-373v-199q0 -45 45 -45h25q45 0 45 45v109h258v-137q0 -250 -250 -250h-139q-250 0 -250 250v671q0 250 250 250h139q250 0 250 -250v-444zM307 885v-211h111v211q0 45 -45 45h-21q-45 0 -45 -45z" />
    <glyph glyph-name="f" unicode="f" horiz-adv-x="487" 
d="M82 1147v84q0 223 223 223h178v-221h-92q-39 0 -39 -39v-47h125v-225h-125v-922h-270v922h-64v225h64z" />
    <glyph glyph-name="g" unicode="g" horiz-adv-x="745" 
d="M700 1147v-1141q0 -123 -59 -181t-182 -58h-199q-111 0 -164 52.5t-53 162.5v71h242v-41q0 -45 45 -45h59q45 0 45 45v172q-100 -80 -201 -80h-4q-90 0 -139 51t-49 148v658q0 97 49 147.5t139 50.5h4q101 0 201 -80v68h266zM430 344v565q-35 13 -65 13
q-29 0 -41.5 -10.5t-12.5 -34.5v-500q0 -24 12.5 -34.5t41.5 -10.5q33 0 65 12z" />
    <glyph glyph-name="h" unicode="h" horiz-adv-x="743" 
d="M45 0v1454h270v-383q51 44 94.5 66t98.5 22h20q83 0 127.5 -47t44.5 -139v-973h-270v877q0 24 -12 34.5t-41 10.5q-27 0 -62 -13v-909h-270z" />
    <glyph glyph-name="i" unicode="i" horiz-adv-x="364" 
d="M43 1219v235h279v-235h-279zM47 0v1147h270v-1147h-270z" />
    <glyph glyph-name="j" unicode="j" horiz-adv-x="368" 
d="M47 1219v235h279v-235h-279zM322 1147v-1153q0 -223 -224 -223h-121v217h35q39 0 39 39v1120h271z" />
    <glyph glyph-name="k" unicode="k" horiz-adv-x="718" 
d="M440 1147h281l-148 -561l142 -586h-287l-113 543v-543h-270v1454h270v-848z" />
    <glyph glyph-name="l" unicode="l" horiz-adv-x="364" 
d="M47 0v1454h270v-1454h-270z" />
    <glyph glyph-name="m" unicode="m" horiz-adv-x="1124" 
d="M698 909v-909h-270v877q0 24 -11 34.5t-38 10.5q-29 0 -64 -13v-909h-270v1147h266v-76q102 88 199 88h16q121 0 158 -98q51 49 99.5 73.5t109.5 24.5h16q83 0 127.5 -47t44.5 -139v-973h-270v877q0 24 -11 34.5t-38 10.5q-29 0 -64 -13z" />
    <glyph glyph-name="n" unicode="n" horiz-adv-x="743" 
d="M45 0v1147h266v-76q50 43 95.5 65.5t101.5 22.5h20q83 0 127.5 -47t44.5 -139v-973h-270v877q0 24 -12 34.5t-41 10.5q-27 0 -62 -13v-909h-270z" />
    <glyph glyph-name="o" unicode="o" horiz-adv-x="741" 
d="M451 -12h-160q-250 0 -250 250v671q0 250 250 250h160q249 0 249 -250v-671q0 -250 -249 -250zM385 922h-29q-45 0 -45 -45v-607q0 -45 45 -45h29q45 0 45 45v607q0 45 -45 45z" />
    <glyph glyph-name="p" unicode="p" horiz-adv-x="745" 
d="M705 186q0 -97 -49.5 -147.5t-139.5 -50.5h-4q-97 0 -197 80v-293h-270v1372h266v-80q102 92 201 92h4q90 0 139.5 -50.5t49.5 -147.5v-775zM434 877q0 24 -12 34.5t-41 10.5q-31 0 -66 -13v-671q35 -13 66 -13q29 0 41 10.5t12 34.5v607z" />
    <glyph glyph-name="q" unicode="q" horiz-adv-x="745" 
d="M700 1147v-1372h-270v305q-50 -45 -95.5 -68.5t-101.5 -23.5h-4q-90 0 -139 50.5t-49 147.5v775q0 97 49 147.5t139 50.5h4q101 0 201 -80v68h266zM430 238v671q-35 13 -65 13q-29 0 -41.5 -10.5t-12.5 -34.5v-607q0 -24 12.5 -34.5t41.5 -10.5q30 0 65 13z" />
    <glyph glyph-name="r" unicode="r" horiz-adv-x="495" 
d="M45 0v1147h266v-125q35 72 72 103.5t94 31.5v-293q-104 -9 -162 -61v-803h-270z" />
    <glyph glyph-name="s" unicode="s" horiz-adv-x="704" 
d="M406 737v148q0 45 -46 45h-18q-45 0 -45 -45v-80q0 -24 8.5 -38t30.5 -28l209 -129q66 -42 94.5 -87t28.5 -120v-165q0 -250 -250 -250h-129q-250 0 -250 250v180h260v-156q0 -45 45 -45h23q45 0 45 45v86q0 24 -8.5 38t-30.5 28l-209 129q-66 42 -94.5 87t-28.5 120v159
q0 250 250 250h125q250 0 250 -250v-172h-260z" />
    <glyph glyph-name="t" unicode="t" horiz-adv-x="477" 
d="M358 922v-922h-270v922h-74v225h74v184h270v-184h107v-225h-107z" />
    <glyph glyph-name="u" unicode="u" horiz-adv-x="743" 
d="M698 1147v-1147h-266v76q-50 -43 -95 -65.5t-101 -22.5h-21q-83 0 -127.5 47t-44.5 139v973h270v-877q0 -24 12.5 -34.5t41.5 -10.5q26 0 61 13v909h270z" />
    <glyph glyph-name="v" unicode="v" horiz-adv-x="704" 
d="M526 0h-348l-172 1147h268l86 -698l86 698h252z" />
    <glyph glyph-name="w" unicode="w" horiz-adv-x="1036" 
d="M586 0l-68 508l-67 -508h-275l-168 1147h264l64 -625l76 625h233l74 -619l65 619h244l-168 -1147h-274z" />
    <glyph glyph-name="x" unicode="x" horiz-adv-x="692" 
d="M258 0h-256l160 549l-156 598h283l63 -336l78 336h256l-156 -549l160 -598h-282l-68 340z" />
    <glyph glyph-name="y" unicode="y" horiz-adv-x="698" 
d="M397 -225h-256l70 305l-211 1067h268l78 -537l100 537h256z" />
    <glyph glyph-name="z" unicode="z" horiz-adv-x="610" 
d="M305 922h-268v225h547v-225l-279 -697h279v-225h-557v225z" />
    <glyph glyph-name="braceleft" unicode="{" horiz-adv-x="530" 
d="M162 420v141q0 36 -17.5 51t-56.5 23l-70 14v139l70 13q40 8 57 23t17 50v140q0 106 7 167.5t34.5 120t68.5 103t121 115.5l125 -54q-80 -98 -111.5 -154t-42 -115.5t-10.5 -180.5v-84q0 -166 -123 -213q65 -19 94 -62.5t29 -121.5v-117q0 -93 3.5 -140t22 -99.5
t48 -94.5t90.5 -117l-125 -53q-80 71 -121 115.5t-68.5 103t-34.5 120t-7 167.5z" />
    <glyph glyph-name="bar" unicode="|" horiz-adv-x="454" 
d="M315 1563v-1700h-176v1700h176z" />
    <glyph glyph-name="braceright" unicode="}" horiz-adv-x="530" 
d="M369 561v-141q0 -106 -7.5 -167.5t-35 -120t-68.5 -103t-121 -115.5l-125 53q61 75 90.5 117t48 94.5t22 99.5t3.5 140v117q0 78 29 121.5t94 62.5q-123 47 -123 213v84q0 121 -10.5 180.5t-42 115.5t-111.5 154l125 54q80 -71 121 -115.5t68.5 -103t35 -120t7.5 -167.5
v-140q0 -35 17 -50t56 -23l70 -13v-139l-70 -14q-39 -8 -56 -23t-17 -51z" />
    <glyph glyph-name="asciitilde" unicode="~" horiz-adv-x="815" 
d="M131 584v207q65 75 152 75h6q38 0 104 -20l37 -12q68 -25 107 -25h6q75 0 145 70v-207q-66 -76 -151 -76h-7q-38 0 -104 20l-37 13q-65 24 -106 24h-7q-76 0 -145 -69z" />
    <glyph glyph-name="uni00A0" unicode="&#xa0;" horiz-adv-x="278" 
 />
    <glyph glyph-name="exclamdown" unicode="&#xa1;" horiz-adv-x="376" 
d="M264 1024l62 -694v-330h-275v330l62 694h151zM317 1434v-316h-258v316h258z" />
    <glyph glyph-name="cent" unicode="&#xa2;" horiz-adv-x="714" 
d="M414 819v219q0 45 -45 45h-17q-45 0 -45 -45v-641q0 -45 45 -45h19q45 0 45 45v262h256v-288q0 -119 -58 -182.5t-170 -67.5v-127h-163v127q-236 6 -236 250v694q0 241 234 250v125h163v-125q228 -12 228 -250v-246h-256z" />
    <glyph glyph-name="sterling" unicode="&#xa3;" horiz-adv-x="811" 
d="M23 545v252h81v383q0 266 267 266h139q266 0 266 -266v-228h-270v197q0 51 -51 51h-17q-51 0 -51 -51v-352h254v-252h-254v-289h393v-256h-757v256h81v289h-81z" />
    <glyph glyph-name="yen" unicode="&#xa5;" horiz-adv-x="749" 
d="M43 606h162l-207 828h295l92 -494l98 494h269l-213 -828h168v-143h-193v-68h193v-143h-193v-252h-278v252h-193v143h193v68h-193v143z" />
    <glyph glyph-name="section" unicode="&#xa7;" horiz-adv-x="759" 
d="M197 842q-82 34 -116 80t-34 139v119q0 266 266 266h133q267 0 267 -266v-172h-271v149q0 51 -51 51h-22q-52 0 -52 -51v-104q0 -53 48 -72l227 -92q36 -14 59 -31t35.5 -32t18.5 -42t7 -45.5t1 -58.5v-47zM563 592q82 -34 116 -80t34 -139v-119q0 -266 -267 -266h-133
q-266 0 -266 266v172h270v-150q0 -51 52 -51h22q51 0 51 51v105q0 28 -10.5 45t-36.5 27l-227 92q-36 14 -59 31t-35.5 32t-18.5 42t-7 45.5t-1 58.5v47z" />
    <glyph glyph-name="dieresis" unicode="&#xa8;" 
d="M545 1219v235h209v-235h-209zM479 1454v-235h-209v235h209z" />
    <glyph glyph-name="copyright" unicode="&#xa9;" horiz-adv-x="1003" 
d="M948 1110v-786q0 -178 -77 -257t-242 -79h-254q-165 0 -242.5 79t-77.5 257v786q0 178 77.5 257t242.5 79h254q165 0 242 -79t77 -257zM895 324v786q0 152 -64.5 219.5t-201.5 67.5h-254q-137 0 -201.5 -67.5t-64.5 -219.5v-786q0 -152 64.5 -219.5t201.5 -67.5h254
q137 0 201.5 67.5t64.5 219.5zM549 655h209v-284q0 -187 -195 -187h-119q-194 0 -194 185v698q0 184 194 184h113q199 0 199 -184v-260h-211v223q0 33 -33 33h-16q-33 0 -33 -33v-624q0 -33 33 -33h18q35 0 35 33v249z" />
    <glyph glyph-name="ordfeminine" unicode="&#xaa;" horiz-adv-x="460" 
d="M41 948v111q0 53 18.5 82.5t63.5 44.5l143 43v63q0 31 -30 31h-17q-15 0 -25 -9t-10 -22v-55h-135v74q0 135 131 135h99q66 0 100.5 -34.5t34.5 -100.5v-461h-144v51q-3 -2 -14.5 -13t-14.5 -13t-13 -9.5t-16 -9.5t-17 -6t-22.5 -5t-25.5 -1h-4q-46 0 -74 27.5t-28 76.5z
M217 973q25 0 49 12v125l-61 -20q-21 -9 -21 -43v-46q0 -28 33 -28z" />
    <glyph glyph-name="guillemotleft" unicode="&#xab;" horiz-adv-x="583" 
d="M6 594l135 338h185l-107 -338l107 -338h-185zM266 594l121 338h184l-92 -338l92 -338h-184z" />
    <glyph glyph-name="registered" unicode="&#xae;" horiz-adv-x="606" 
d="M569 1251v-368q0 -107 -48 -152t-154 -45h-127q-106 0 -154.5 45t-48.5 152v368q0 104 48.5 149.5t154.5 45.5h127q106 0 154 -45.5t48 -149.5zM528 883v368q0 84 -38.5 120t-122.5 36h-127q-84 0 -123 -36t-39 -120v-368q0 -85 38.5 -121.5t123.5 -36.5h127
q84 0 122.5 36.5t38.5 121.5zM461 1225v-101q0 -59 -51 -75q51 -11 51 -66v-168h-123v158q0 18 -21 18h-36v-176h-125v504h196q109 0 109 -94zM338 1110v90q0 19 -23 19h-34v-127h34q23 0 23 18z" />
    <glyph glyph-name="macron" unicode="&#xaf;" 
d="M272 1413h480v-180h-480v180z" />
    <glyph glyph-name="degree" unicode="&#xb0;" horiz-adv-x="528" 
d="M496 1292v-436q0 -68 -40.5 -113t-105.5 -45h-172q-64 0 -104.5 45t-40.5 113v436q0 68 40.5 111t104.5 43h172q66 0 106 -43t40 -111zM319 897v350q0 15 -9 26t-21 11h-49q-12 0 -21.5 -11t-9.5 -26v-350q0 -15 9.5 -26t21.5 -11h49q12 0 21 11t9 26z" />
    <glyph glyph-name="plusminus" unicode="&#xb1;" horiz-adv-x="643" 
d="M225 557v209h-205v182h205v209h193v-209h205v-182h-205v-209h-193zM20 485h603v-180h-603v180z" />
    <glyph glyph-name="acute" unicode="&#xb4;" 
d="M360 1219l80 235h265l-150 -235h-195z" />
    <glyph glyph-name="paragraph" unicode="&#xb6;" horiz-adv-x="735" 
d="M528 1290h-114v-1290h-15q-179 0 -265.5 87t-86.5 265v729q0 179 87 266t265 87h285v-1434h-156v1290z" />
    <glyph glyph-name="periodcentered" unicode="&#xb7;" horiz-adv-x="339" 
d="M303 784v-315h-266v315h266z" />
    <glyph glyph-name="cedilla" unicode="&#xb8;" 
d="M643 0l-43 -213h-231l104 213h170z" />
    <glyph glyph-name="ordmasculine" unicode="&#xba;" horiz-adv-x="473" 
d="M254 1315h-35q-12 0 -19 -8.5t-7 -20.5v-282q0 -12 7 -20.5t19 -8.5h35q12 0 19.5 8.5t7.5 20.5v282q0 12 -7.5 20.5t-19.5 8.5zM291 844h-109q-64 0 -100.5 36t-36.5 101v328q0 65 36.5 101t100.5 36h109q66 0 101.5 -36t35.5 -101v-328q0 -65 -35.5 -101t-101.5 -36z
" />
    <glyph glyph-name="guillemotright" unicode="&#xbb;" horiz-adv-x="583" 
d="M442 932l136 -338l-136 -338h-184l107 338l-107 338h184zM197 932l120 -338l-120 -338h-185l92 338l-92 338h185z" />
    <glyph glyph-name="questiondown" unicode="&#xbf;" horiz-adv-x="714" 
d="M397 598l-39 -43q-27 -30 -38 -54t-11 -57v-159q0 -52 51 -52h19q51 0 51 52v229h258v-260q0 -266 -266 -266h-129q-266 0 -266 266v190q0 78 24.5 138.5t89.5 132.5l95 106q25 29 34 55t9 68v100h204v-210q0 -84 -16 -129t-70 -107zM252 1118v316h258v-316h-258z" />
    <glyph glyph-name="Agrave" unicode="&#xc0;" horiz-adv-x="788" 
d="M590 1434l188 -1434h-284l-23 209h-180l-21 -209h-260l189 1434h391zM401 1700l97 -195h-203l-166 195h272zM381 1083l-64 -624h127z" />
    <glyph glyph-name="Aacute" unicode="&#xc1;" horiz-adv-x="788" 
d="M778 0h-284l-23 209h-180l-21 -209h-260l189 1434h391zM293 1505l92 195h264l-162 -195h-194zM381 1083l-64 -624h127z" />
    <glyph glyph-name="Acircumflex" unicode="&#xc2;" horiz-adv-x="788" 
d="M778 0h-284l-23 209h-180l-21 -209h-260l189 1434h391zM496 1716l147 -211h-166l-84 70l-84 -70h-166l148 211h205zM381 1083l-64 -624h127z" />
    <glyph glyph-name="Atilde" unicode="&#xc3;" horiz-adv-x="788" 
d="M778 0h-284l-23 209h-180l-21 -209h-260l189 1434h391zM244 1720h32q57 0 97 -22l59 -33q31 -16 53 -16q21 0 21 24v47h141v-102q0 -113 -104 -113h-33q-34 0 -51 4.5t-43 18.5l-62 33q-31 16 -53 16q-20 0 -20 -25v-47h-142v103q0 59 26 85.5t79 26.5zM381 1083
l-64 -624h127z" />
    <glyph glyph-name="Adieresis" unicode="&#xc4;" horiz-adv-x="788" 
d="M778 0h-284l-23 209h-180l-21 -209h-260l189 1434h391zM426 1505v195h213v-195h-213zM360 1700v-195h-213v195h213zM381 1083l-64 -624h127z" />
    <glyph glyph-name="Aring" unicode="&#xc5;" horiz-adv-x="780" 
d="M610 1456v-10q0 -47 -22 -72l186 -1374h-285l-22 209h-180l-21 -209l-260 -4l184 1376q-22 28 -22 74v10q0 53 35 84t106 31h160q71 0 106 -31t35 -84zM555 1446v10q0 66 -86 66h-160q-86 0 -86 -66v-10q0 -66 86 -66h160q86 0 86 66zM377 1094l-64 -635h129z" />
    <glyph glyph-name="AE" unicode="&#xc6;" horiz-adv-x="1007" 
d="M967 0h-537v209h-135l-29 -209h-260l240 1434h717v-256h-246v-322h235v-256h-235v-344h250v-256zM330 459h100v719z" />
    <glyph glyph-name="Ccedilla" unicode="&#xc7;" horiz-adv-x="800" 
d="M473 633h283v-379q0 -263 -264 -266l-41 -201h-232l98 201h-4q-266 0 -266 266v926q0 266 266 266h172q267 0 267 -266v-336h-283v305q0 51 -51 51h-33q-51 0 -51 -51v-864q0 -52 51 -52h37q51 0 51 52v348z" />
    <glyph glyph-name="Egrave" unicode="&#xc8;" horiz-adv-x="628" 
d="M51 1434h533v-256h-246v-322h235v-256h-235v-344h250v-256h-537v1434zM326 1700l96 -195h-203l-166 195h273z" />
    <glyph glyph-name="Eacute" unicode="&#xc9;" horiz-adv-x="628" 
d="M51 1434h533v-256h-246v-322h235v-256h-235v-344h250v-256h-537v1434zM217 1505l92 195h264l-161 -195h-195z" />
    <glyph glyph-name="Ecircumflex" unicode="&#xca;" horiz-adv-x="628" 
d="M51 1434h533v-256h-246v-322h235v-256h-235v-344h250v-256h-537v1434zM420 1716l147 -211h-166l-84 70l-84 -70h-165l147 211h205z" />
    <glyph glyph-name="Edieresis" unicode="&#xcb;" horiz-adv-x="628" 
d="M51 1434h533v-256h-246v-322h235v-256h-235v-344h250v-256h-537v1434zM350 1505v195h213v-195h-213zM285 1700v-195h-213v195h213z" />
    <glyph glyph-name="Igrave" unicode="&#xcc;" horiz-adv-x="393" 
d="M340 1434v-1434h-287v1434h287zM205 1700l96 -195h-203l-166 195h273z" />
    <glyph glyph-name="Iacute" unicode="&#xcd;" horiz-adv-x="393" 
d="M340 1434v-1434h-287v1434h287zM96 1505l92 195h265l-162 -195h-195z" />
    <glyph glyph-name="Icircumflex" unicode="&#xce;" horiz-adv-x="393" 
d="M340 1434v-1434h-287v1434h287zM299 1716l147 -211h-165l-84 70l-84 -70h-166l147 211h205z" />
    <glyph glyph-name="Idieresis" unicode="&#xcf;" horiz-adv-x="393" 
d="M340 1434v-1434h-287v1434h287zM229 1505v195h213v-195h-213zM164 1700v-195h-213v195h213z" />
    <glyph glyph-name="Eth" unicode="&#xd0;" horiz-adv-x="829" 
d="M72 0v618h-72v218h72v598h403q155 0 231 -76.5t76 -231.5v-819q0 -155 -76 -231t-231 -76h-403zM358 1188v-352h82v-218h-82v-372h58q80 0 80 80v782q0 80 -80 80h-58z" />
    <glyph glyph-name="Ntilde" unicode="&#xd1;" horiz-adv-x="802" 
d="M473 0l-182 780l4 -364l4 -416h-248v1434h293l166 -711l-4 414l-2 297h248v-1434h-279zM260 1720h33q35 0 53 -4t43 -18l60 -33q31 -16 53 -16q20 0 20 24v47h142v-102q0 -113 -105 -113h-33q-34 0 -51 4.5t-43 18.5l-61 33q-31 16 -54 16q-20 0 -20 -25v-47h-141v103
q0 59 25.5 85.5t78.5 26.5z" />
    <glyph glyph-name="Ograve" unicode="&#xd2;" horiz-adv-x="811" 
d="M764 254q0 -266 -266 -266h-185q-266 0 -266 266v926q0 266 266 266h185q266 0 266 -266v-926zM477 1149q0 51 -51 51h-41q-51 0 -51 -51v-864q0 -52 51 -52h41q51 0 51 52v864zM414 1700l96 -195h-203l-166 195h273z" />
    <glyph glyph-name="Oacute" unicode="&#xd3;" horiz-adv-x="811" 
d="M764 254q0 -266 -266 -266h-185q-266 0 -266 266v926q0 266 266 266h185q266 0 266 -266v-926zM477 1149q0 51 -51 51h-41q-51 0 -51 -51v-864q0 -52 51 -52h41q51 0 51 52v864zM305 1505l92 195h265l-162 -195h-195z" />
    <glyph glyph-name="Ocircumflex" unicode="&#xd4;" horiz-adv-x="811" 
d="M764 254q0 -266 -266 -266h-185q-266 0 -266 266v926q0 266 266 266h185q266 0 266 -266v-926zM477 1149q0 51 -51 51h-41q-51 0 -51 -51v-864q0 -52 51 -52h41q51 0 51 52v864zM508 1716l147 -211h-166l-83 70l-84 -70h-166l147 211h205z" />
    <glyph glyph-name="Otilde" unicode="&#xd5;" horiz-adv-x="811" 
d="M764 254q0 -266 -266 -266h-185q-266 0 -266 266v926q0 266 266 266h185q266 0 266 -266v-926zM477 1149q0 51 -51 51h-41q-51 0 -51 -51v-864q0 -52 51 -52h41q51 0 51 52v864zM256 1720h33q35 0 53 -4t43 -18l59 -33q31 -16 54 -16q20 0 20 24v47h141v-102
q0 -113 -104 -113h-33q-34 0 -51 4.5t-43 18.5l-61 33q-31 16 -54 16q-20 0 -20 -25v-47h-141v103q0 59 25.5 85.5t78.5 26.5z" />
    <glyph glyph-name="Odieresis" unicode="&#xd6;" horiz-adv-x="811" 
d="M764 254q0 -266 -266 -266h-185q-266 0 -266 266v926q0 266 266 266h185q266 0 266 -266v-926zM477 1149q0 51 -51 51h-41q-51 0 -51 -51v-864q0 -52 51 -52h41q51 0 51 52v864zM438 1505v195h213v-195h-213zM373 1700v-195h-213v195h213z" />
    <glyph glyph-name="multiply" unicode="&#xd7;" horiz-adv-x="643" 
d="M479 434l-162 162l-161 -162l-129 129l161 162l-161 162l135 135l162 -162l161 162l129 -129l-161 -162l161 -162z" />
    <glyph glyph-name="Oslash" unicode="&#xd8;" horiz-adv-x="811" 
d="M764 254q0 -266 -266 -266h-185q-266 0 -266 266v926q0 266 266 266h185q266 0 266 -266v-926zM481 539l2 286l-153 -534v-2q0 -56 55 -56h39q55 0 55 56zM330 940l-4 -332l155 535v2q0 55 -55 55h-39q-55 0 -55 -55z" />
    <glyph glyph-name="Ugrave" unicode="&#xd9;" horiz-adv-x="804" 
d="M756 1434v-1180q0 -266 -267 -266h-174q-266 0 -266 266v1180h287v-1149q0 -52 51 -52h31q51 0 51 52v1149h287zM410 1700l96 -195h-203l-166 195h273z" />
    <glyph glyph-name="Uacute" unicode="&#xda;" horiz-adv-x="804" 
d="M756 1434v-1180q0 -266 -267 -266h-174q-266 0 -266 266v1180h287v-1149q0 -52 51 -52h31q51 0 51 52v1149h287zM301 1505l92 195h264l-161 -195h-195z" />
    <glyph glyph-name="Ucircumflex" unicode="&#xdb;" horiz-adv-x="804" 
d="M756 1434v-1180q0 -266 -267 -266h-174q-266 0 -266 266v1180h287v-1149q0 -52 51 -52h31q51 0 51 52v1149h287zM504 1716l147 -211h-166l-84 70l-84 -70h-165l147 211h205z" />
    <glyph glyph-name="Udieresis" unicode="&#xdc;" horiz-adv-x="804" 
d="M756 1434v-1180q0 -266 -267 -266h-174q-266 0 -266 266v1180h287v-1149q0 -52 51 -52h31q51 0 51 52v1149h287zM434 1505v195h213v-195h-213zM369 1700v-195h-213v195h213z" />
    <glyph glyph-name="Yacute" unicode="&#xdd;" horiz-adv-x="759" 
d="M526 510v-510h-286v489l-242 945h299l96 -488l103 488h272zM293 1505l92 195h264l-162 -195h-194z" />
    <glyph glyph-name="Thorn" unicode="&#xde;" horiz-adv-x="765" 
d="M338 254v-254h-287v1434h287v-244h133q266 0 266 -266v-404q0 -266 -266 -266h-133zM451 893q0 51 -52 51h-61v-444h61q52 0 52 51v342z" />
    <glyph glyph-name="germandbls" unicode="&#xdf;" horiz-adv-x="749" 
d="M711 569v-319q0 -250 -250 -250h-92v238h28q45 0 45 45v290q0 48 -47 48h-26v239h22q25 0 36 11t11 36v256q0 54 -49 54h-22q-52 0 -52 -54v-1163h-270v1188q0 266 266 266h127q269 0 269 -266v-221q0 -168 -119 -213q64 -19 93.5 -63t29.5 -122z" />
    <glyph glyph-name="agrave" unicode="&#xe0;" horiz-adv-x="718" 
d="M37 174v258q0 95 33 142.5t118 76.5l222 76v160q0 45 -45 45h-17q-49 0 -49 -45v-139h-250v161q0 250 250 250h127q250 0 250 -250v-909h-262v76q-53 -45 -97.5 -66.5t-101.5 -21.5h-4q-84 0 -129 48t-45 138zM387 1454l80 -235h-195l-149 235h264zM346 221q37 0 64 10
v281l-76 -35q-23 -11 -31 -23.5t-8 -39.5v-148q0 -24 12 -34.5t39 -10.5z" />
    <glyph glyph-name="aacute" unicode="&#xe1;" horiz-adv-x="718" 
d="M37 174v258q0 95 33 142.5t118 76.5l222 76v160q0 45 -45 45h-17q-49 0 -49 -45v-139h-250v161q0 250 250 250h127q250 0 250 -250v-909h-262v76q-53 -45 -97.5 -66.5t-101.5 -21.5h-4q-84 0 -129 48t-45 138zM266 1219l80 235h264l-149 -235h-195zM346 221q37 0 64 10
v281l-76 -35q-23 -11 -31 -23.5t-8 -39.5v-148q0 -24 12 -34.5t39 -10.5z" />
    <glyph glyph-name="acircumflex" unicode="&#xe2;" horiz-adv-x="718" 
d="M37 174v258q0 95 33 142.5t118 76.5l222 76v160q0 45 -45 45h-17q-49 0 -49 -45v-139h-250v161q0 250 250 250h127q250 0 250 -250v-909h-262v76q-53 -45 -97.5 -66.5t-101.5 -21.5h-4q-84 0 -129 48t-45 138zM469 1454l139 -235h-166l-75 88l-76 -88h-166l139 235h205z
M346 221q37 0 64 10v281l-76 -35q-23 -11 -31 -23.5t-8 -39.5v-148q0 -24 12 -34.5t39 -10.5z" />
    <glyph glyph-name="atilde" unicode="&#xe3;" horiz-adv-x="718" 
d="M37 174v258q0 95 33 142.5t118 76.5l222 76v160q0 45 -45 45h-17q-49 0 -49 -45v-139h-250v161q0 250 250 250h127q250 0 250 -250v-909h-262v76q-53 -45 -97.5 -66.5t-101.5 -21.5h-4q-84 0 -129 48t-45 138zM221 1454h29q37 0 54.5 -4t39.5 -18l64 -43l7.5 -5t6.5 -4
t5 -3t4.5 -2.5t4 -1.5t4 -1.5t4 -1t5.5 -0.5h6q20 0 20 25v59h141v-123q0 -112 -104 -112h-29q-37 0 -53 3.5t-39 18.5l-65 43q-6 3 -12.5 7t-9.5 5.5l-7 3.5t-8 2.5t-10 0.5q-21 0 -21 -25v-59h-141v122q0 59 25.5 86t78.5 27zM346 221q37 0 64 10v281l-76 -35
q-23 -11 -31 -23.5t-8 -39.5v-148q0 -24 12 -34.5t39 -10.5z" />
    <glyph glyph-name="adieresis" unicode="&#xe4;" horiz-adv-x="718" 
d="M37 174v258q0 95 33 142.5t118 76.5l222 76v160q0 45 -45 45h-17q-49 0 -49 -45v-139h-250v161q0 250 250 250h127q250 0 250 -250v-909h-262v76q-53 -45 -97.5 -66.5t-101.5 -21.5h-4q-84 0 -129 48t-45 138zM334 1454v-235h-209v235h209zM399 1219v235h209v-235h-209z
M346 221q37 0 64 10v281l-76 -35q-23 -11 -31 -23.5t-8 -39.5v-148q0 -24 12 -34.5t39 -10.5z" />
    <glyph glyph-name="aring" unicode="&#xe5;" horiz-adv-x="718" 
d="M37 174v258q0 95 33 142.5t118 76.5l222 76v160q0 45 -45 45h-17q-49 0 -49 -45v-139h-250v161q0 250 250 250h127q250 0 250 -250v-909h-262v76q-53 -45 -97.5 -66.5t-101.5 -21.5h-4q-84 0 -129 48t-45 138zM549 1343v-14q0 -54 -33.5 -85.5t-103.5 -31.5h-90
q-70 0 -104 31.5t-34 85.5v14q0 54 34 85.5t104 31.5h90q70 0 103.5 -31.5t33.5 -85.5zM498 1329v14q0 72 -86 72h-90q-86 0 -86 -72v-14q0 -72 86 -72h90q86 0 86 72zM346 221q37 0 64 10v281l-76 -35q-23 -11 -31 -23.5t-8 -39.5v-148q0 -24 12 -34.5t39 -10.5z" />
    <glyph glyph-name="ae" unicode="&#xe6;" horiz-adv-x="1089" 
d="M700 1159h99q250 0 250 -250v-444h-373v-199q0 -45 45 -45h24q46 0 46 45v109h258v-137q0 -250 -250 -250h-140q-156 0 -215 98q-56 -38 -83.5 -54.5t-66.5 -30t-79 -13.5h-4q-84 0 -129 48t-45 138v258q0 95 33 142.5t118 76.5l222 76v160q0 45 -45 45h-17
q-49 0 -49 -45v-139h-250v161q0 250 250 250h86q60 0 95.5 -16.5t62.5 -50.5q27 34 62 50.5t95 16.5zM410 231v281l-76 -35q-23 -11 -31 -23.5t-8 -39.5v-148q0 -24 12 -34.5t39 -10.5q37 0 64 10zM676 885v-211h110v211q0 45 -45 45h-20q-45 0 -45 -45z" />
    <glyph glyph-name="ccedilla" unicode="&#xe7;" horiz-adv-x="724" 
d="M422 672v205q0 45 -45 45h-21q-45 0 -45 -45v-607q0 -45 45 -45h23q45 0 45 45v242h264v-274q0 -241 -235 -250l-41 -201h-232l99 201q-238 6 -238 250v671q0 250 250 250h145q250 0 250 -250v-237h-264z" />
    <glyph glyph-name="egrave" unicode="&#xe8;" horiz-adv-x="720" 
d="M680 465h-373v-199q0 -45 45 -45h25q45 0 45 45v109h258v-137q0 -250 -250 -250h-139q-250 0 -250 250v671q0 250 250 250h139q250 0 250 -250v-444zM381 1454l80 -235h-195l-149 235h264zM307 885v-211h111v211q0 45 -45 45h-21q-45 0 -45 -45z" />
    <glyph glyph-name="eacute" unicode="&#xe9;" horiz-adv-x="720" 
d="M680 465h-373v-199q0 -45 45 -45h25q45 0 45 45v109h258v-137q0 -250 -250 -250h-139q-250 0 -250 250v671q0 250 250 250h139q250 0 250 -250v-444zM260 1219l80 235h264l-149 -235h-195zM307 885v-211h111v211q0 45 -45 45h-21q-45 0 -45 -45z" />
    <glyph glyph-name="ecircumflex" unicode="&#xea;" horiz-adv-x="720" 
d="M680 465h-373v-199q0 -45 45 -45h25q45 0 45 45v109h258v-137q0 -250 -250 -250h-139q-250 0 -250 250v671q0 250 250 250h139q250 0 250 -250v-444zM463 1454l139 -235h-166l-76 88l-75 -88h-166l139 235h205zM307 885v-211h111v211q0 45 -45 45h-21q-45 0 -45 -45z" />
    <glyph glyph-name="edieresis" unicode="&#xeb;" horiz-adv-x="720" 
d="M680 465h-373v-199q0 -45 45 -45h25q45 0 45 45v109h258v-137q0 -250 -250 -250h-139q-250 0 -250 250v671q0 250 250 250h139q250 0 250 -250v-444zM328 1454v-235h-209v235h209zM393 1219v235h209v-235h-209zM307 885v-211h111v211q0 45 -45 45h-21q-45 0 -45 -45z" />
    <glyph glyph-name="igrave" unicode="&#xec;" horiz-adv-x="364" 
d="M47 0v1147h270v-1147h-270zM203 1454l80 -235h-195l-149 235h264z" />
    <glyph glyph-name="iacute" unicode="&#xed;" horiz-adv-x="364" 
d="M47 0v1147h270v-1147h-270zM82 1219l80 235h264l-150 -235h-194z" />
    <glyph glyph-name="icircumflex" unicode="&#xee;" horiz-adv-x="364" 
d="M47 0v1147h270v-1147h-270zM285 1454l139 -235h-166l-76 88l-76 -88h-165l139 235h205z" />
    <glyph glyph-name="idieresis" unicode="&#xef;" horiz-adv-x="364" 
d="M47 0v1147h270v-1147h-270zM215 1219v235h209v-235h-209zM150 1454v-235h-209v235h209z" />
    <glyph glyph-name="eth" unicode="&#xf0;" horiz-adv-x="743" 
d="M690 1454l-84 -137q51 -31 72.5 -76.5t21.5 -114.5v-888q0 -250 -249 -250h-160q-250 0 -250 250v714q0 97 49 148t139 51h4q118 0 213 -92v35q0 36 -15 53t-54 33l-189 80l105 200l172 -76l41 70h184zM385 922h-29q-45 0 -45 -45v-607q0 -45 45 -45h29q45 0 45 45v607
q0 45 -45 45z" />
    <glyph glyph-name="ntilde" unicode="&#xf1;" horiz-adv-x="743" 
d="M45 0v1147h266v-76q50 43 95.5 65.5t101.5 22.5h20q83 0 127.5 -47t44.5 -139v-973h-270v877q0 24 -12 34.5t-41 10.5q-27 0 -62 -13v-909h-270zM227 1454h29q37 0 54.5 -4t39.5 -18l64 -43l7.5 -5t6.5 -4t5 -3t4.5 -2.5t4 -1.5t4 -1.5t4 -1t5.5 -0.5h6q20 0 20 25v59
h142v-123q0 -112 -105 -112h-29q-37 0 -53 3.5t-39 18.5l-65 43q-6 3 -12.5 7t-9.5 5.5l-7 3.5t-8 2.5t-10 0.5q-21 0 -21 -25v-59h-141v122q0 59 25.5 86t78.5 27z" />
    <glyph glyph-name="ograve" unicode="&#xf2;" horiz-adv-x="741" 
d="M451 -12h-160q-250 0 -250 250v671q0 250 250 250h160q249 0 249 -250v-671q0 -250 -249 -250zM385 922h-29q-45 0 -45 -45v-607q0 -45 45 -45h29q45 0 45 45v607q0 45 -45 45zM391 1454l80 -235h-195l-149 235h264z" />
    <glyph glyph-name="oacute" unicode="&#xf3;" horiz-adv-x="741" 
d="M451 -12h-160q-250 0 -250 250v671q0 250 250 250h160q249 0 249 -250v-671q0 -250 -249 -250zM385 922h-29q-45 0 -45 -45v-607q0 -45 45 -45h29q45 0 45 45v607q0 45 -45 45zM270 1219l80 235h264l-149 -235h-195z" />
    <glyph glyph-name="ocircumflex" unicode="&#xf4;" horiz-adv-x="741" 
d="M451 -12h-160q-250 0 -250 250v671q0 250 250 250h160q249 0 249 -250v-671q0 -250 -249 -250zM385 922h-29q-45 0 -45 -45v-607q0 -45 45 -45h29q45 0 45 45v607q0 45 -45 45zM473 1454l139 -235h-166l-75 88l-76 -88h-166l139 235h205z" />
    <glyph glyph-name="otilde" unicode="&#xf5;" horiz-adv-x="741" 
d="M451 -12h-160q-250 0 -250 250v671q0 250 250 250h160q249 0 249 -250v-671q0 -250 -249 -250zM225 1454h29q37 0 54.5 -4t39.5 -18l64 -43l7.5 -5t6.5 -4t5 -3t4.5 -2.5t4 -1.5t4 -1.5t4 -1t5.5 -0.5h6q20 0 20 25v59h142v-123q0 -112 -105 -112h-29q-37 0 -53 3.5
t-39 18.5l-65 43q-6 3 -12.5 7t-9.5 5.5l-7 3.5t-8 2.5t-10 0.5q-21 0 -21 -25v-59h-141v122q0 59 25.5 86t78.5 27zM385 922h-29q-45 0 -45 -45v-607q0 -45 45 -45h29q45 0 45 45v607q0 45 -45 45z" />
    <glyph glyph-name="odieresis" unicode="&#xf6;" horiz-adv-x="741" 
d="M451 -12h-160q-250 0 -250 250v671q0 250 250 250h160q249 0 249 -250v-671q0 -250 -249 -250zM385 922h-29q-45 0 -45 -45v-607q0 -45 45 -45h29q45 0 45 45v607q0 45 -45 45zM403 1219v235h209v-235h-209zM338 1454v-235h-209v235h209z" />
    <glyph glyph-name="divide" unicode="&#xf7;" horiz-adv-x="643" 
d="M20 819h603v-182h-603v182zM225 881v188h193v-188h-193zM225 387v188h193v-188h-193z" />
    <glyph glyph-name="oslash" unicode="&#xf8;" horiz-adv-x="741" 
d="M451 -12h-160q-250 0 -250 250v671q0 250 250 250h160q249 0 249 -250v-671q0 -250 -249 -250zM432 270v381l-123 -377v-4q0 -45 47 -45h29q47 0 47 45zM356 922q-47 0 -47 -45v-72l-2 -307l125 374v5q0 45 -47 45h-29z" />
    <glyph glyph-name="ugrave" unicode="&#xf9;" horiz-adv-x="743" 
d="M698 1147v-1147h-266v76q-50 -43 -95 -65.5t-101 -22.5h-21q-83 0 -127.5 47t-44.5 139v973h270v-877q0 -24 12.5 -34.5t41.5 -10.5q26 0 61 13v909h270zM391 1454l80 -235h-195l-149 235h264z" />
    <glyph glyph-name="uacute" unicode="&#xfa;" horiz-adv-x="743" 
d="M698 1147v-1147h-266v76q-50 -43 -95 -65.5t-101 -22.5h-21q-83 0 -127.5 47t-44.5 139v973h270v-877q0 -24 12.5 -34.5t41.5 -10.5q26 0 61 13v909h270zM270 1219l80 235h264l-149 -235h-195z" />
    <glyph glyph-name="ucircumflex" unicode="&#xfb;" horiz-adv-x="743" 
d="M698 1147v-1147h-266v76q-50 -43 -95 -65.5t-101 -22.5h-21q-83 0 -127.5 47t-44.5 139v973h270v-877q0 -24 12.5 -34.5t41.5 -10.5q26 0 61 13v909h270zM473 1454l139 -235h-166l-75 88l-76 -88h-166l139 235h205z" />
    <glyph glyph-name="udieresis" unicode="&#xfc;" horiz-adv-x="743" 
d="M698 1147v-1147h-266v76q-50 -43 -95 -65.5t-101 -22.5h-21q-83 0 -127.5 47t-44.5 139v973h270v-877q0 -24 12.5 -34.5t41.5 -10.5q26 0 61 13v909h270zM338 1454v-235h-209v235h209zM403 1219v235h209v-235h-209z" />
    <glyph glyph-name="yacute" unicode="&#xfd;" horiz-adv-x="698" 
d="M397 -225h-256l70 305l-211 1067h268l78 -537l100 537h256zM250 1219l80 235h264l-150 -235h-194z" />
    <glyph glyph-name="thorn" unicode="&#xfe;" horiz-adv-x="745" 
d="M45 1454h270v-387q50 45 95.5 68.5t101.5 23.5h4q90 0 139.5 -50.5t49.5 -147.5v-775q0 -97 -49.5 -147.5t-139.5 -50.5h-4q-97 0 -197 80v-293h-270v1679zM315 909v-671q35 -13 66 -13q29 0 41 10.5t12 34.5v607q0 24 -12 34.5t-41 10.5q-31 0 -66 -13z" />
    <glyph glyph-name="ydieresis" unicode="&#xff;" horiz-adv-x="698" 
d="M397 -225h-256l70 305l-211 1067h268l78 -537l100 537h256zM383 1219v235h209v-235h-209zM317 1454v-235h-208v235h208z" />
    <glyph glyph-name="Amacron" unicode="&#x100;" horiz-adv-x="788" 
d="M590 1434l188 -1434h-284l-23 209h-180l-21 -209h-260l189 1434h391zM154 1679h479v-159h-479v159zM381 1083l-64 -624h127z" />
    <glyph glyph-name="amacron" unicode="&#x101;" horiz-adv-x="718" 
d="M37 174v258q0 95 33 142.5t118 76.5l222 76v160q0 45 -45 45h-17q-49 0 -49 -45v-139h-250v161q0 250 250 250h127q250 0 250 -250v-909h-262v76q-53 -45 -97.5 -66.5t-101.5 -21.5h-4q-84 0 -129 48t-45 138zM127 1413h479v-180h-479v180zM346 221q37 0 64 10v281
l-76 -35q-23 -11 -31 -23.5t-8 -39.5v-148q0 -24 12 -34.5t39 -10.5z" />
    <glyph glyph-name="Abreve" unicode="&#x102;" horiz-adv-x="788" 
d="M778 0h-284l-23 209h-180l-21 -209h-260l189 1434h391zM166 1667v49h162v-33q0 -41 49 -41h33q49 0 49 41v33h162v-49q0 -87 -41.5 -127.5t-128.5 -40.5h-115q-87 0 -128.5 40.5t-41.5 127.5zM381 1083l-64 -624h127z" />
    <glyph glyph-name="abreve" unicode="&#x103;" horiz-adv-x="718" 
d="M37 174v258q0 95 33 142.5t118 76.5l222 76v160q0 45 -45 45h-17q-49 0 -49 -45v-139h-250v161q0 250 250 250h127q250 0 250 -250v-909h-262v76q-53 -45 -97.5 -66.5t-101.5 -21.5h-4q-84 0 -129 48t-45 138zM143 1393v61h162v-49q0 -49 49 -49h25q49 0 49 49v49h162
v-61q0 -93 -41.5 -137t-128.5 -44h-107q-87 0 -128.5 44t-41.5 137zM346 221q37 0 64 10v281l-76 -35q-23 -11 -31 -23.5t-8 -39.5v-148q0 -24 12 -34.5t39 -10.5z" />
    <glyph glyph-name="Aogonek" unicode="&#x104;" horiz-adv-x="788" 
d="M590 1434l188 -1434h-45l-16 -29q-21 -38 -21 -49q0 -16 19 -16h61v-135h-139q-58 0 -83.5 25.5t-25.5 74.5v14q0 49 41 111l2 4h-77l-23 209h-180l-21 -209h-260l189 1434h391zM381 1083l-64 -624h127z" />
    <glyph glyph-name="aogonek" unicode="&#x105;" horiz-adv-x="718" 
d="M37 174v258q0 95 33 142.5t118 76.5l222 76v160q0 45 -45 45h-17q-49 0 -49 -45v-139h-250v161q0 250 250 250h127q250 0 250 -250v-909h-39l-16 -29q-21 -38 -21 -49q0 -16 18 -16h62v-135h-139q-58 0 -83.5 25.5t-25.5 74.5v14q0 49 41 111l2 4h-61v76
q-53 -45 -97.5 -66.5t-101.5 -21.5h-4q-84 0 -129 48t-45 138zM346 221q37 0 64 10v281l-76 -35q-23 -11 -31 -23.5t-8 -39.5v-148q0 -24 12 -34.5t39 -10.5z" />
    <glyph glyph-name="Cacute" unicode="&#x106;" horiz-adv-x="800" 
d="M473 633h283v-379q0 -266 -267 -266h-176q-266 0 -266 266v926q0 266 266 266h172q267 0 267 -266v-336h-283v305q0 51 -51 51h-33q-51 0 -51 -51v-864q0 -52 51 -52h37q51 0 51 52v348zM301 1505l92 195h264l-161 -195h-195z" />
    <glyph glyph-name="cacute" unicode="&#x107;" horiz-adv-x="724" 
d="M422 672v205q0 45 -45 45h-21q-45 0 -45 -45v-607q0 -45 45 -45h23q45 0 45 45v242h264v-274q0 -250 -250 -250h-147q-250 0 -250 250v671q0 250 250 250h145q250 0 250 -250v-237h-264zM264 1219l80 235h264l-149 -235h-195z" />
    <glyph glyph-name="Cdotaccent" unicode="&#x10a;" horiz-adv-x="800" 
d="M473 633h283v-379q0 -266 -267 -266h-176q-266 0 -266 266v926q0 266 266 266h172q267 0 267 -266v-336h-283v305q0 51 -51 51h-33q-51 0 -51 -51v-864q0 -52 51 -52h37q51 0 51 52v348zM518 1700v-195h-233v195h233z" />
    <glyph glyph-name="cdotaccent" unicode="&#x10b;" horiz-adv-x="724" 
d="M422 672v205q0 45 -45 45h-21q-45 0 -45 -45v-607q0 -45 45 -45h23q45 0 45 45v242h264v-274q0 -250 -250 -250h-147q-250 0 -250 250v671q0 250 250 250h145q250 0 250 -250v-237h-264zM479 1454v-235h-229v235h229z" />
    <glyph glyph-name="Ccaron" unicode="&#x10c;" horiz-adv-x="800" 
d="M473 633h283v-379q0 -266 -267 -266h-176q-266 0 -266 266v926q0 266 266 266h172q267 0 267 -266v-336h-283v305q0 51 -51 51h-33q-51 0 -51 -51v-864q0 -52 51 -52h37q51 0 51 52v348zM651 1716l-147 -211h-205l-147 211h165l84 -69l84 69h166z" />
    <glyph glyph-name="ccaron" unicode="&#x10d;" horiz-adv-x="724" 
d="M422 672v205q0 45 -45 45h-21q-45 0 -45 -45v-607q0 -45 45 -45h23q45 0 45 45v242h264v-274q0 -250 -250 -250h-147q-250 0 -250 250v671q0 250 250 250h145q250 0 250 -250v-237h-264zM606 1454l-139 -235h-205l-139 235h166l76 -88l75 88h166z" />
    <glyph glyph-name="Dcaron" unicode="&#x10e;" horiz-adv-x="808" 
d="M51 0v1434h404q155 0 231 -76.5t76 -231.5v-819q0 -155 -76 -231t-231 -76h-404zM338 1188v-942h57q80 0 80 80v782q0 80 -80 80h-57zM639 1716l-147 -211h-205l-148 211h166l84 -69l84 69h166z" />
    <glyph glyph-name="dcaron" unicode="&#x10f;" horiz-adv-x="745" 
d="M700 1454v-1454h-266v80q-102 -92 -201 -92h-4q-90 0 -139 50.5t-49 147.5v775q0 97 49 147.5t139 50.5h4q97 0 197 -80v375h270zM430 238v671q-35 13 -65 13q-29 0 -41.5 -10.5t-12.5 -34.5v-607q0 -24 12.5 -34.5t41.5 -10.5q30 0 65 13zM750 1192v262h172l-70 -262
h-102z" />
    <glyph glyph-name="Dcroat" unicode="&#x110;" horiz-adv-x="829" 
d="M72 0v618h-72v218h72v598h403q155 0 231 -76.5t76 -231.5v-819q0 -155 -76 -231t-231 -76h-403zM358 1188v-352h82v-218h-82v-372h58q80 0 80 80v782q0 80 -80 80h-58z" />
    <glyph glyph-name="dcroat" unicode="&#x111;" horiz-adv-x="765" 
d="M700 1454v-106h72v-156h-72v-1192h-266v80q-102 -92 -201 -92h-4q-90 0 -139 50.5t-49 147.5v775q0 97 49 147.5t139 50.5h4q97 0 197 -80v113h-143v156h143v106h270zM430 238v671q-35 13 -65 13q-29 0 -41.5 -10.5t-12.5 -34.5v-607q0 -24 12.5 -34.5t41.5 -10.5
q30 0 65 13z" />
    <glyph glyph-name="Emacron" unicode="&#x112;" horiz-adv-x="628" 
d="M51 1434h533v-256h-246v-322h235v-256h-235v-344h250v-256h-537v1434zM78 1679h479v-159h-479v159z" />
    <glyph glyph-name="emacron" unicode="&#x113;" horiz-adv-x="720" 
d="M680 465h-373v-199q0 -45 45 -45h25q45 0 45 45v109h258v-137q0 -250 -250 -250h-139q-250 0 -250 250v671q0 250 250 250h139q250 0 250 -250v-444zM121 1413h479v-180h-479v180zM307 885v-211h111v211q0 45 -45 45h-21q-45 0 -45 -45z" />
    <glyph glyph-name="Ebreve" unicode="&#x114;" horiz-adv-x="628" 
d="M51 1434h533v-256h-246v-322h235v-256h-235v-344h250v-256h-537v1434zM90 1667v49h162v-33q0 -41 49 -41h33q49 0 49 41v33h162v-49q0 -87 -41.5 -127.5t-128.5 -40.5h-115q-87 0 -128.5 40.5t-41.5 127.5z" />
    <glyph glyph-name="ebreve" unicode="&#x115;" horiz-adv-x="720" 
d="M680 465h-373v-199q0 -45 45 -45h25q45 0 45 45v109h258v-137q0 -250 -250 -250h-139q-250 0 -250 250v671q0 250 250 250h139q250 0 250 -250v-444zM137 1393v61h162v-49q0 -49 49 -49h25q49 0 49 49v49h162v-61q0 -93 -41.5 -137t-128.5 -44h-107q-87 0 -128.5 44
t-41.5 137zM307 885v-211h111v211q0 45 -45 45h-21q-45 0 -45 -45z" />
    <glyph glyph-name="Edotaccent" unicode="&#x116;" horiz-adv-x="628" 
d="M51 1434h533v-256h-246v-322h235v-256h-235v-344h250v-256h-537v1434zM434 1700v-195h-233v195h233z" />
    <glyph glyph-name="edotaccent" unicode="&#x117;" horiz-adv-x="720" 
d="M680 465h-373v-199q0 -45 45 -45h25q45 0 45 45v109h258v-137q0 -250 -250 -250h-139q-250 0 -250 250v671q0 250 250 250h139q250 0 250 -250v-444zM475 1454v-235h-229v235h229zM307 885v-211h111v211q0 45 -45 45h-21q-45 0 -45 -45z" />
    <glyph glyph-name="Eogonek" unicode="&#x118;" horiz-adv-x="628" 
d="M51 1434h533v-256h-246v-322h235v-256h-235v-344h250v-256h-43l-17 -29q-20 -36 -20 -49q0 -16 18 -16h62v-135h-139q-58 0 -83.5 25.5t-25.5 74.5v14q0 49 41 111l2 4h-332v1434z" />
    <glyph glyph-name="eogonek" unicode="&#x119;" horiz-adv-x="720" 
d="M680 465h-373v-199q0 -45 45 -45h25q45 0 45 45v109h258v-137q0 -80 -31 -144l-63 -123q-19 -37 -19 -49q0 -16 19 -16h61v-135h-139q-58 0 -83.5 25.5t-25.5 74.5v14q0 42 35 103h-143q-250 0 -250 250v671q0 250 250 250h139q250 0 250 -250v-444zM307 885v-211h111
v211q0 45 -45 45h-21q-45 0 -45 -45z" />
    <glyph glyph-name="Ecaron" unicode="&#x11a;" horiz-adv-x="628" 
d="M51 1434h533v-256h-246v-322h235v-256h-235v-344h250v-256h-537v1434zM567 1716l-147 -211h-205l-147 211h165l84 -69l84 69h166z" />
    <glyph glyph-name="ecaron" unicode="&#x11b;" horiz-adv-x="720" 
d="M680 465h-373v-199q0 -45 45 -45h25q45 0 45 45v109h258v-137q0 -250 -250 -250h-139q-250 0 -250 250v671q0 250 250 250h139q250 0 250 -250v-444zM602 1454l-139 -235h-205l-139 235h166l75 -88l76 88h166zM307 885v-211h111v211q0 45 -45 45h-21q-45 0 -45 -45z" />
    <glyph glyph-name="Gbreve" unicode="&#x11e;" horiz-adv-x="811" 
d="M483 569h-90v240h371v-555q0 -266 -266 -266h-185q-266 0 -266 266v926q0 266 266 266h181q266 0 266 -266v-275h-283v244q0 51 -51 51h-41q-51 0 -51 -51v-864q0 -52 51 -52h47q51 0 51 52v284zM178 1667v49h162v-33q0 -41 49 -41h33q49 0 49 41v33h162v-49
q0 -87 -41.5 -127.5t-128.5 -40.5h-115q-87 0 -128.5 40.5t-41.5 127.5z" />
    <glyph glyph-name="gbreve" unicode="&#x11f;" horiz-adv-x="745" 
d="M700 1147v-1141q0 -123 -59 -181t-182 -58h-199q-111 0 -164 52.5t-53 162.5v71h242v-41q0 -45 45 -45h59q45 0 45 45v172q-100 -80 -201 -80h-4q-90 0 -139 51t-49 148v658q0 97 49 147.5t139 50.5h4q101 0 201 -80v68h266zM156 1393v61h161v-49q0 -49 50 -49h24
q49 0 49 49v49h162v-61q0 -93 -41.5 -137t-128.5 -44h-106q-87 0 -128.5 44t-41.5 137zM430 344v565q-35 13 -65 13q-29 0 -41.5 -10.5t-12.5 -34.5v-500q0 -24 12.5 -34.5t41.5 -10.5q33 0 65 12z" />
    <glyph glyph-name="Gdotaccent" unicode="&#x120;" horiz-adv-x="811" 
d="M483 569h-90v240h371v-555q0 -266 -266 -266h-185q-266 0 -266 266v926q0 266 266 266h181q266 0 266 -266v-275h-283v244q0 51 -51 51h-41q-51 0 -51 -51v-864q0 -52 51 -52h47q51 0 51 52v284zM522 1700v-195h-233v195h233z" />
    <glyph glyph-name="gdotaccent" unicode="&#x121;" horiz-adv-x="745" 
d="M700 1147v-1141q0 -123 -59 -181t-182 -58h-199q-111 0 -164 52.5t-53 162.5v71h242v-41q0 -45 45 -45h59q45 0 45 45v172q-100 -80 -201 -80h-4q-90 0 -139 51t-49 148v658q0 97 49 147.5t139 50.5h4q101 0 201 -80v68h266zM430 344v565q-35 13 -65 13
q-29 0 -41.5 -10.5t-12.5 -34.5v-500q0 -24 12.5 -34.5t41.5 -10.5q33 0 65 12zM494 1454v-235h-230v235h230z" />
    <glyph glyph-name="Gcommaaccent" unicode="&#x122;" horiz-adv-x="811" 
d="M483 569h-90v240h371v-555q0 -266 -266 -266h-185q-266 0 -266 266v926q0 266 266 266h181q266 0 266 -266v-275h-283v244q0 51 -51 51h-41q-51 0 -51 -51v-864q0 -52 51 -52h47q51 0 51 52v284zM510 -72v-141q0 -84 -17.5 -128t-76.5 -112l-45 -51l-70 45l35 53
q41 63 47 105h-82v229h209z" />
    <glyph glyph-name="gcommaaccent" unicode="&#x123;" horiz-adv-x="745" 
d="M700 1147v-1141q0 -123 -59 -181t-182 -58h-199q-111 0 -164 52.5t-53 162.5v71h242v-41q0 -45 45 -45h59q45 0 45 45v172q-100 -80 -201 -80h-4q-90 0 -139 51t-49 148v658q0 97 49 147.5t139 50.5h4q101 0 201 -80v68h266zM430 344v565q-35 13 -65 13
q-29 0 -41.5 -10.5t-12.5 -34.5v-500q0 -24 12.5 -34.5t41.5 -10.5q33 0 65 12zM274 1219v141q0 83 17.5 126.5t77.5 112.5l45 52l69 -45l-34 -54q-48 -70 -48 -104h82v-229h-209z" />
    <glyph glyph-name="Hbar" unicode="&#x126;" horiz-adv-x="860" 
d="M0 1036v217h72v181h286v-205h144v205h286v-181h72v-217h-72v-1036h-286v600h-144v-600h-286v1036h-72zM358 856h144v205h-144v-205z" />
    <glyph glyph-name="hbar" unicode="&#x127;" horiz-adv-x="763" 
d="M66 0v1192h-72v156h72v106h270v-106h143v-156h-143v-121q51 44 94 66t98 22h21q83 0 127.5 -47t44.5 -139v-973h-270v877q0 24 -12.5 34.5t-41.5 10.5q-26 0 -61 -13v-909h-270z" />
    <glyph glyph-name="Imacron" unicode="&#x12a;" horiz-adv-x="393" 
d="M340 1434v-1434h-287v1434h287zM-43 1679h479v-159h-479v159z" />
    <glyph glyph-name="imacron" unicode="&#x12b;" horiz-adv-x="364" 
d="M47 0v1147h270v-1147h-270zM-57 1413h479v-180h-479v180z" />
    <glyph glyph-name="Ibreve" unicode="&#x12c;" horiz-adv-x="393" 
d="M340 1434v-1434h-287v1434h287zM-31 1667v49h162v-33q0 -41 49 -41h33q49 0 49 41v33h162v-49q0 -87 -41.5 -127.5t-128.5 -40.5h-115q-87 0 -128.5 40.5t-41.5 127.5z" />
    <glyph glyph-name="ibreve" unicode="&#x12d;" horiz-adv-x="364" 
d="M47 0v1147h270v-1147h-270zM-41 1393v61h162v-49q0 -49 49 -49h25q49 0 49 49v49h162v-61q0 -93 -41.5 -137t-128.5 -44h-107q-87 0 -128.5 44t-41.5 137z" />
    <glyph glyph-name="Iogonek" unicode="&#x12e;" horiz-adv-x="393" 
d="M340 1434v-1434h-53l-17 -29q-20 -36 -20 -49q0 -16 18 -16h62v-135h-140q-58 0 -83 25.5t-25 74.5v14q0 49 41 111l2 4h-72v1434h287z" />
    <glyph glyph-name="iogonek" unicode="&#x12f;" horiz-adv-x="364" 
d="M47 0v1147h270v-1147h-45l-16 -29q-20 -36 -20 -49q0 -16 18 -16h61v-135h-139q-58 0 -83 25.5t-25 74.5v14q0 49 41 111l2 4h-64zM43 1219v235h279v-235h-279z" />
    <glyph glyph-name="Idotaccent" unicode="&#x130;" horiz-adv-x="393" 
d="M340 1434v-1434h-287v1434h287zM313 1700v-195h-233v195h233z" />
    <glyph glyph-name="dotlessi" unicode="&#x131;" horiz-adv-x="364" 
d="M47 0v1147h270v-1147h-270z" />
    <glyph glyph-name="Kcommaaccent" unicode="&#x136;" horiz-adv-x="790" 
d="M786 0h-303l-145 678v-678h-287v1434h287v-674l160 674h297l-189 -705zM494 -72v-141q0 -83 -18 -127t-77 -113l-45 -51l-69 45l34 53q42 65 48 105h-82v229h209z" />
    <glyph glyph-name="kcommaaccent" unicode="&#x137;" horiz-adv-x="718" 
d="M440 1147h281l-148 -561l142 -586h-287l-113 543v-543h-270v1454h270v-848zM463 -72v-141q0 -84 -17.5 -128t-76.5 -112l-45 -51l-70 45l35 53q41 63 47 105h-82v229h209z" />
    <glyph glyph-name="Lacute" unicode="&#x139;" horiz-adv-x="569" 
d="M51 1434h287v-1178h207v-256h-494v1434zM94 1505l92 195h265l-162 -195h-195z" />
    <glyph glyph-name="lacute" unicode="&#x13a;" horiz-adv-x="364" 
d="M47 0v1454h270v-1454h-270zM82 1526l80 235h264l-150 -235h-194z" />
    <glyph glyph-name="Lcommaaccent" unicode="&#x13b;" horiz-adv-x="569" 
d="M51 1434h287v-1178h207v-256h-494v1434zM401 -72v-141q0 -84 -17.5 -128t-76.5 -112l-45 -51l-69 45l34 53q41 63 47 105h-81v229h208z" />
    <glyph glyph-name="lcommaaccent" unicode="&#x13c;" horiz-adv-x="364" 
d="M47 0v1454h270v-1454h-270zM287 -72v-141q0 -84 -17.5 -128t-76.5 -112l-46 -51l-69 45l35 53q41 63 47 105h-82v229h209z" />
    <glyph glyph-name="Lcaron" unicode="&#x13d;" horiz-adv-x="569" 
d="M51 1434h287v-1178h207v-256h-494v1434zM387 1171v263h172l-70 -263h-102z" />
    <glyph glyph-name="lcaron" unicode="&#x13e;" horiz-adv-x="364" 
d="M47 0v1454h270v-1454h-270zM367 1192v262h172l-70 -262h-102z" />
    <glyph glyph-name="Ldot" unicode="&#x13f;" horiz-adv-x="569" 
d="M553 838v-236h-168v236h168zM51 1434h287v-1178h207v-256h-494v1434z" />
    <glyph glyph-name="ldot" unicode="&#x140;" horiz-adv-x="512" 
d="M512 846v-236h-147v236h147zM47 0v1454h270v-1454h-270z" />
    <glyph glyph-name="Lslash" unicode="&#x141;" horiz-adv-x="589" 
d="M72 1434h286v-519l121 66v-213l-121 -66v-446h207v-256h-493v551l-72 -37v213l72 37v670z" />
    <glyph glyph-name="lslash" unicode="&#x142;" horiz-adv-x="405" 
d="M68 0v541l-72 -54v205l72 49v713h270v-536l72 55v-205l-72 -51v-717h-270z" />
    <glyph glyph-name="Nacute" unicode="&#x143;" horiz-adv-x="802" 
d="M752 0h-279l-182 780l4 -364l4 -416h-248v1434h293l166 -711l-4 414l-2 297h248v-1434zM309 1505l92 195h265l-162 -195h-195z" />
    <glyph glyph-name="nacute" unicode="&#x144;" horiz-adv-x="743" 
d="M45 0v1147h266v-76q50 43 95.5 65.5t101.5 22.5h20q83 0 127.5 -47t44.5 -139v-973h-270v877q0 24 -12 34.5t-41 10.5q-27 0 -62 -13v-909h-270zM272 1219l80 235h264l-149 -235h-195z" />
    <glyph glyph-name="Ncommaaccent" unicode="&#x145;" horiz-adv-x="802" 
d="M473 0l-182 780l4 -364l4 -416h-248v1434h293l166 -711l-4 414l-2 297h248v-1434h-279zM494 -72v-141q0 -83 -18 -127t-77 -113l-45 -51l-69 45l34 53q42 65 48 105h-82v229h209z" />
    <glyph glyph-name="ncommaaccent" unicode="&#x146;" horiz-adv-x="743" 
d="M45 0v1147h266v-76q50 43 95.5 65.5t101.5 22.5h20q83 0 127.5 -47t44.5 -139v-973h-270v877q0 24 -12 34.5t-41 10.5q-27 0 -62 -13v-909h-270zM477 -72v-141q0 -84 -17.5 -128t-76.5 -112l-45 -51l-70 45l35 53q41 63 47 105h-82v229h209z" />
    <glyph glyph-name="Ncaron" unicode="&#x147;" horiz-adv-x="802" 
d="M473 0l-182 780l4 -364l4 -416h-248v1434h293l166 -711l-4 414l-2 297h248v-1434h-279zM659 1716l-147 -211h-205l-147 211h166l84 -69l84 69h165z" />
    <glyph glyph-name="ncaron" unicode="&#x148;" horiz-adv-x="743" 
d="M45 0v1147h266v-76q50 43 95.5 65.5t101.5 22.5h20q83 0 127.5 -47t44.5 -139v-973h-270v877q0 24 -12 34.5t-41 10.5q-27 0 -62 -13v-909h-270zM614 1454l-139 -235h-205l-139 235h166l76 -88l76 88h165z" />
    <glyph glyph-name="Omacron" unicode="&#x14c;" horiz-adv-x="811" 
d="M764 254q0 -266 -266 -266h-185q-266 0 -266 266v926q0 266 266 266h185q266 0 266 -266v-926zM477 1149q0 51 -51 51h-41q-51 0 -51 -51v-864q0 -52 51 -52h41q51 0 51 52v864zM166 1679h479v-159h-479v159z" />
    <glyph glyph-name="omacron" unicode="&#x14d;" horiz-adv-x="741" 
d="M451 -12h-160q-250 0 -250 250v671q0 250 250 250h160q249 0 249 -250v-671q0 -250 -249 -250zM385 922h-29q-45 0 -45 -45v-607q0 -45 45 -45h29q45 0 45 45v607q0 45 -45 45zM131 1413h479v-180h-479v180z" />
    <glyph glyph-name="Obreve" unicode="&#x14e;" horiz-adv-x="811" 
d="M764 254q0 -266 -266 -266h-185q-266 0 -266 266v926q0 266 266 266h185q266 0 266 -266v-926zM477 1149q0 51 -51 51h-41q-51 0 -51 -51v-864q0 -52 51 -52h41q51 0 51 52v864zM178 1667v49h162v-33q0 -41 49 -41h33q49 0 49 41v33h162v-49q0 -87 -41.5 -127.5
t-128.5 -40.5h-115q-87 0 -128.5 40.5t-41.5 127.5z" />
    <glyph glyph-name="obreve" unicode="&#x14f;" horiz-adv-x="741" 
d="M451 -12h-160q-250 0 -250 250v671q0 250 250 250h160q249 0 249 -250v-671q0 -250 -249 -250zM385 922h-29q-45 0 -45 -45v-607q0 -45 45 -45h29q45 0 45 45v607q0 45 -45 45zM147 1393v61h162v-49q0 -49 49 -49h25q49 0 49 49v49h162v-61q0 -93 -41.5 -137t-128.5 -44
h-107q-87 0 -128.5 44t-41.5 137z" />
    <glyph glyph-name="Ohungarumlaut" unicode="&#x150;" horiz-adv-x="811" 
d="M764 254q0 -266 -266 -266h-185q-266 0 -266 266v926q0 266 266 266h185q266 0 266 -266v-926zM477 1149q0 51 -51 51h-41q-51 0 -51 -51v-864q0 -52 51 -52h41q51 0 51 52v864zM444 1505l68 164l-135 -164h-141l79 195h430l-159 -195h-142z" />
    <glyph glyph-name="ohungarumlaut" unicode="&#x151;" horiz-adv-x="741" 
d="M451 -12h-160q-250 0 -250 250v671q0 250 250 250h160q249 0 249 -250v-671q0 -250 -249 -250zM385 922h-29q-45 0 -45 -45v-607q0 -45 45 -45h29q45 0 45 45v607q0 45 -45 45zM410 1219l57 198l-125 -198h-133l67 235h414l-147 -235h-133z" />
    <glyph glyph-name="OE" unicode="&#x152;" horiz-adv-x="1048" 
d="M354 1434h650v-256h-246v-322h235v-256h-235v-344h250v-256h-654q-155 0 -231 76t-76 231v819q0 155 76 231.5t231 76.5zM471 246v942h-57q-80 0 -80 -80v-782q0 -80 80 -80h57z" />
    <glyph glyph-name="oe" unicode="&#x153;" horiz-adv-x="1110" 
d="M721 1159h98q250 0 250 -250v-444h-373v-199q0 -45 45 -45h25q45 0 45 45v109h258v-137q0 -250 -250 -250h-98q-60 0 -94 16t-62 49q-28 -33 -62 -49t-93 -16h-119q-250 0 -250 250v671q0 250 250 250h119q59 0 93.5 -16.5t61.5 -50.5q27 34 61.5 50.5t94.5 16.5z
M385 922h-29q-45 0 -45 -45v-607q0 -45 45 -45h29q42 0 45 37v615q0 45 -45 45zM696 885v-211h111v211q0 45 -45 45h-21q-45 0 -45 -45z" />
    <glyph glyph-name="Racute" unicode="&#x154;" horiz-adv-x="792" 
d="M623 678q66 -19 95.5 -62.5t29.5 -121.5v-494h-287v492q0 51 -51 51h-72v-543h-287v1434h428q266 0 266 -267v-276q0 -168 -122 -213zM459 1133q0 51 -51 51h-70v-398h70q51 0 51 52v295zM299 1505l92 195h264l-161 -195h-195z" />
    <glyph glyph-name="racute" unicode="&#x155;" horiz-adv-x="495" 
d="M45 0v1147h266v-125q35 72 72 103.5t94 31.5v-293q-104 -9 -162 -61v-803h-270zM145 1219l80 235h264l-149 -235h-195z" />
    <glyph glyph-name="Rcommaaccent" unicode="&#x156;" horiz-adv-x="792" 
d="M623 678q66 -19 95.5 -62.5t29.5 -121.5v-494h-287v492q0 51 -51 51h-72v-543h-287v1434h428q266 0 266 -267v-276q0 -168 -122 -213zM504 -72v-141q0 -84 -17.5 -128t-76.5 -112l-45 -51l-70 45l35 53q41 63 47 105h-82v229h209zM459 1133q0 51 -51 51h-70v-398h70
q51 0 51 52v295z" />
    <glyph glyph-name="rcommaaccent" unicode="&#x157;" horiz-adv-x="495" 
d="M45 0v1147h266v-125q35 72 72 103.5t94 31.5v-293q-104 -9 -162 -61v-803h-270zM285 -72v-141q0 -83 -18 -127t-77 -113l-45 -51l-69 45l35 53q41 63 47 105h-82v229h209z" />
    <glyph glyph-name="Rcaron" unicode="&#x158;" horiz-adv-x="792" 
d="M623 678q66 -19 95.5 -62.5t29.5 -121.5v-494h-287v492q0 51 -51 51h-72v-543h-287v1434h428q266 0 266 -267v-276q0 -168 -122 -213zM459 1133q0 51 -51 51h-70v-398h70q51 0 51 52v295zM649 1716l-147 -211h-205l-147 211h165l84 -69l84 69h166z" />
    <glyph glyph-name="rcaron" unicode="&#x159;" horiz-adv-x="495" 
d="M45 0v1147h266v-125q35 72 72 103.5t94 31.5v-293q-104 -9 -162 -61v-803h-270zM487 1454l-139 -235h-205l-139 235h166l76 -88l76 88h165z" />
    <glyph glyph-name="Sacute" unicode="&#x15a;" horiz-adv-x="770" 
d="M621 743q65 -47 89.5 -96t24.5 -129v-264q0 -266 -266 -266h-160q-266 0 -266 266v305h281v-278q0 -52 51 -52h26q52 0 52 52v172q0 33 -11.5 53t-38.5 39l-245 182q-65 46 -90 96.5t-25 128.5v228q0 266 266 266h156q266 0 266 -266v-262h-280v235q0 51 -52 51h-22
q-51 0 -51 -51v-135q0 -33 11 -53t38 -39zM289 1505l92 195h264l-162 -195h-194z" />
    <glyph glyph-name="sacute" unicode="&#x15b;" horiz-adv-x="704" 
d="M406 737v148q0 45 -46 45h-18q-45 0 -45 -45v-80q0 -24 8.5 -38t30.5 -28l209 -129q66 -42 94.5 -87t28.5 -120v-165q0 -250 -250 -250h-129q-250 0 -250 250v180h260v-156q0 -45 45 -45h23q45 0 45 45v86q0 24 -8.5 38t-30.5 28l-209 129q-66 42 -94.5 87t-28.5 120v159
q0 250 250 250h125q250 0 250 -250v-172h-260zM252 1219l80 235h264l-150 -235h-194z" />
    <glyph glyph-name="Scedilla" unicode="&#x15e;" horiz-adv-x="770" 
d="M621 743q65 -47 89.5 -96t24.5 -129v-264q0 -260 -258 -266l-41 -201h-231l98 201q-260 3 -260 266v305h281v-278q0 -52 51 -52h26q52 0 52 52v172q0 33 -11.5 53t-38.5 39l-245 182q-65 46 -90 96.5t-25 128.5v228q0 266 266 266h156q266 0 266 -266v-262h-280v235
q0 51 -52 51h-22q-51 0 -51 -51v-135q0 -33 11 -53t38 -39z" />
    <glyph glyph-name="scedilla" unicode="&#x15f;" horiz-adv-x="704" 
d="M406 737v148q0 45 -46 45h-18q-45 0 -45 -45v-80q0 -24 8.5 -38t30.5 -28l209 -129q66 -42 94.5 -87t28.5 -120v-165q0 -238 -228 -250l-41 -201h-231l98 201q-227 12 -227 250v180h260v-156q0 -45 45 -45h23q45 0 45 45v86q0 24 -8.5 38t-30.5 28l-209 129
q-66 42 -94.5 87t-28.5 120v159q0 250 250 250h125q250 0 250 -250v-172h-260z" />
    <glyph glyph-name="Scaron" unicode="&#x160;" horiz-adv-x="770" 
d="M621 743q65 -47 89.5 -96t24.5 -129v-264q0 -266 -266 -266h-160q-266 0 -266 266v305h281v-278q0 -52 51 -52h26q52 0 52 52v172q0 33 -11.5 53t-38.5 39l-245 182q-65 46 -90 96.5t-25 128.5v228q0 266 266 266h156q266 0 266 -266v-262h-280v235q0 51 -52 51h-22
q-51 0 -51 -51v-135q0 -33 11 -53t38 -39zM639 1716l-147 -211h-205l-148 211h166l84 -69l84 69h166z" />
    <glyph glyph-name="scaron" unicode="&#x161;" horiz-adv-x="704" 
d="M406 737v148q0 45 -46 45h-18q-45 0 -45 -45v-80q0 -24 8.5 -38t30.5 -28l209 -129q66 -42 94.5 -87t28.5 -120v-165q0 -250 -250 -250h-129q-250 0 -250 250v180h260v-156q0 -45 45 -45h23q45 0 45 45v86q0 24 -8.5 38t-30.5 28l-209 129q-66 42 -94.5 87t-28.5 120v159
q0 250 250 250h125q250 0 250 -250v-172h-260zM594 1454l-139 -235h-205l-139 235h165l76 -88l76 88h166z" />
    <glyph glyph-name="Tcommaaccent" unicode="&#x162;" horiz-adv-x="675" 
d="M481 0h-286v1178h-175v256h635v-256h-174v-1178zM442 -72v-141q0 -84 -17.5 -128t-76.5 -112l-45 -51l-70 45l35 53q41 63 47 105h-82v229h209z" />
    <glyph glyph-name="Tcommaaccent" unicode="&#x21a;" horiz-adv-x="675" 
d="M481 0h-286v1178h-175v256h635v-256h-174v-1178zM442 -72v-141q0 -84 -17.5 -128t-76.5 -112l-45 -51l-70 45l35 53q41 63 47 105h-82v229h209z" />
    <glyph glyph-name="tcommaaccent" unicode="&#x163;" horiz-adv-x="477" 
d="M358 922v-922h-270v922h-74v225h74v184h270v-184h107v-225h-107zM344 -72v-141q0 -84 -17.5 -128t-76.5 -112l-45 -51l-70 45l35 53q41 63 47 105h-82v229h209z" />
    <glyph glyph-name="tcommaaccent" unicode="&#x21b;" horiz-adv-x="477" 
d="M358 922v-922h-270v922h-74v225h74v184h270v-184h107v-225h-107zM344 -72v-141q0 -84 -17.5 -128t-76.5 -112l-45 -51l-70 45l35 53q41 63 47 105h-82v229h209z" />
    <glyph glyph-name="Tcaron" unicode="&#x164;" horiz-adv-x="675" 
d="M481 0h-286v1178h-175v256h635v-256h-174v-1178zM588 1716l-148 -211h-204l-148 211h166l84 -69l84 69h166z" />
    <glyph glyph-name="tcaron" unicode="&#x165;" horiz-adv-x="477" 
d="M358 922v-922h-270v922h-74v225h74v184h270v-184h107v-225h-107zM408 1192v262h172l-70 -262h-102z" />
    <glyph glyph-name="Umacron" unicode="&#x16a;" horiz-adv-x="804" 
d="M756 1434v-1180q0 -266 -267 -266h-174q-266 0 -266 266v1180h287v-1149q0 -52 51 -52h31q51 0 51 52v1149h287zM162 1679h479v-159h-479v159z" />
    <glyph glyph-name="umacron" unicode="&#x16b;" horiz-adv-x="743" 
d="M698 1147v-1147h-266v76q-50 -43 -95 -65.5t-101 -22.5h-21q-83 0 -127.5 47t-44.5 139v973h270v-877q0 -24 12.5 -34.5t41.5 -10.5q26 0 61 13v909h270zM131 1413h479v-180h-479v180z" />
    <glyph glyph-name="Ubreve" unicode="&#x16c;" horiz-adv-x="804" 
d="M756 1434v-1180q0 -266 -267 -266h-174q-266 0 -266 266v1180h287v-1149q0 -52 51 -52h31q51 0 51 52v1149h287zM174 1667v49h162v-33q0 -41 49 -41h33q49 0 49 41v33h162v-49q0 -87 -41.5 -127.5t-128.5 -40.5h-115q-87 0 -128.5 40.5t-41.5 127.5z" />
    <glyph glyph-name="ubreve" unicode="&#x16d;" horiz-adv-x="743" 
d="M698 1147v-1147h-266v76q-50 -43 -95 -65.5t-101 -22.5h-21q-83 0 -127.5 47t-44.5 139v973h270v-877q0 -24 12.5 -34.5t41.5 -10.5q26 0 61 13v909h270zM147 1393v61h162v-49q0 -49 49 -49h25q49 0 49 49v49h162v-61q0 -93 -41.5 -137t-128.5 -44h-107q-87 0 -128.5 44
t-41.5 137z" />
    <glyph glyph-name="Uring" unicode="&#x16e;" horiz-adv-x="804" 
d="M756 1434v-1180q0 -266 -267 -266h-174q-266 0 -266 266v1180h287v-1149q0 -52 51 -52h31q51 0 51 52v1149h287zM623 1624v-10q0 -53 -35.5 -84t-106.5 -31h-159q-71 0 -106.5 31t-35.5 84v10q0 53 35.5 84t106.5 31h159q71 0 106.5 -31t35.5 -84zM567 1614v10
q0 66 -86 66h-159q-86 0 -86 -66v-10q0 -66 86 -66h159q86 0 86 66z" />
    <glyph glyph-name="uring" unicode="&#x16f;" horiz-adv-x="743" 
d="M698 1147v-1147h-266v76q-50 -43 -95 -65.5t-101 -22.5h-21q-83 0 -127.5 47t-44.5 139v973h270v-877q0 -24 12.5 -34.5t41.5 -10.5q26 0 61 13v909h270zM553 1343v-14q0 -54 -33.5 -85.5t-103.5 -31.5h-90q-70 0 -104 31.5t-34 85.5v14q0 54 34 85.5t104 31.5h90
q70 0 103.5 -31.5t33.5 -85.5zM502 1329v14q0 72 -86 72h-90q-86 0 -86 -72v-14q0 -72 86 -72h90q86 0 86 72z" />
    <glyph glyph-name="Uhungarumlaut" unicode="&#x170;" horiz-adv-x="804" 
d="M756 1434v-1180q0 -266 -267 -266h-174q-266 0 -266 266v1180h287v-1149q0 -52 51 -52h31q51 0 51 52v1149h287zM440 1505l68 164l-135 -164h-142l80 195h430l-159 -195h-142z" />
    <glyph glyph-name="uhungarumlaut" unicode="&#x171;" horiz-adv-x="743" 
d="M698 1147v-1147h-266v76q-50 -43 -95 -65.5t-101 -22.5h-21q-83 0 -127.5 47t-44.5 139v973h270v-877q0 -24 12.5 -34.5t41.5 -10.5q26 0 61 13v909h270zM410 1219l57 198l-125 -198h-133l67 235h414l-147 -235h-133z" />
    <glyph glyph-name="Uogonek" unicode="&#x172;" horiz-adv-x="804" 
d="M756 1434v-1180q0 -266 -267 -266h-12l-10 -17q-21 -38 -21 -49q0 -16 19 -16h61v-135h-139q-58 0 -83 25.5t-25 74.5v14q0 48 34 103q-264 0 -264 266v1180h287v-1149q0 -52 51 -52h31q51 0 51 52v1149h287z" />
    <glyph glyph-name="uogonek" unicode="&#x173;" horiz-adv-x="743" 
d="M698 1147v-1147h-39l-16 -29q-20 -36 -20 -49q0 -16 18 -16h61v-135h-139q-58 0 -83 25.5t-25 74.5v14q0 49 41 111l2 4h-66v76q-50 -43 -95 -65.5t-101 -22.5h-21q-83 0 -127.5 47t-44.5 139v973h270v-877q0 -24 12.5 -34.5t41.5 -10.5q26 0 61 13v909h270z" />
    <glyph glyph-name="Wcircumflex" unicode="&#x174;" horiz-adv-x="1155" 
d="M731 1434l82 -762l74 762h254l-174 -1434h-316l-76 653l-71 -653h-316l-174 1434h291l74 -768l82 768h270zM700 1716l148 -211h-166l-84 70l-84 -70h-166l148 211h204z" />
    <glyph glyph-name="wcircumflex" unicode="&#x175;" horiz-adv-x="1036" 
d="M586 0l-68 508l-67 -508h-275l-168 1147h264l64 -625l76 625h233l74 -619l65 619h244l-168 -1147h-274zM635 1454l139 -235h-166l-76 88l-75 -88h-166l139 235h205z" />
    <glyph glyph-name="Ycircumflex" unicode="&#x176;" horiz-adv-x="759" 
d="M526 510v-510h-286v489l-242 945h299l96 -488l103 488h272zM496 1716l147 -211h-166l-84 70l-84 -70h-166l148 211h205z" />
    <glyph glyph-name="ycircumflex" unicode="&#x177;" horiz-adv-x="698" 
d="M397 -225h-256l70 305l-211 1067h268l78 -537l100 537h256zM453 1454l139 -235h-166l-76 88l-76 -88h-165l139 235h205z" />
    <glyph glyph-name="Ydieresis" unicode="&#x178;" horiz-adv-x="759" 
d="M526 510v-510h-286v489l-242 945h299l96 -488l103 488h272zM426 1505v195h213v-195h-213zM360 1700v-195h-213v195h213z" />
    <glyph glyph-name="Zacute" unicode="&#x179;" horiz-adv-x="641" 
d="M336 1178h-293v256h567v-297l-303 -881h303v-256h-577v297zM227 1505l92 195h265l-162 -195h-195z" />
    <glyph glyph-name="zacute" unicode="&#x17a;" horiz-adv-x="610" 
d="M305 922h-268v225h547v-225l-279 -697h279v-225h-557v225zM217 1219l80 235h264l-149 -235h-195z" />
    <glyph glyph-name="Zdotaccent" unicode="&#x17b;" horiz-adv-x="641" 
d="M336 1178h-293v256h567v-297l-303 -881h303v-256h-577v297zM444 1700v-195h-233v195h233z" />
    <glyph glyph-name="zdotaccent" unicode="&#x17c;" horiz-adv-x="610" 
d="M305 922h-268v225h547v-225l-279 -697h279v-225h-557v225zM432 1454v-235h-229v235h229z" />
    <glyph glyph-name="Zcaron" unicode="&#x17d;" horiz-adv-x="641" 
d="M336 1178h-293v256h567v-297l-303 -881h303v-256h-577v297zM578 1716l-148 -211h-205l-147 211h166l84 -69l84 69h166z" />
    <glyph glyph-name="zcaron" unicode="&#x17e;" horiz-adv-x="610" 
d="M305 922h-268v225h547v-225l-279 -697h279v-225h-557v225zM559 1454l-139 -235h-205l-139 235h166l75 -88l76 88h166z" />
    <glyph glyph-name="Aringacute" unicode="&#x1fa;" horiz-adv-x="780" 
d="M610 1456v-10q0 -47 -22 -72l186 -1374h-285l-22 209h-180l-21 -209l-260 -4l184 1376q-22 28 -22 74v10q0 53 35 84t106 31h160q71 0 106 -31t35 -84zM281 1612l92 194h264l-162 -194h-194zM555 1446v10q0 66 -86 66h-160q-86 0 -86 -66v-10q0 -66 86 -66h160
q86 0 86 66zM377 1094l-64 -635h129z" />
    <glyph glyph-name="aringacute" unicode="&#x1fb;" horiz-adv-x="718" 
d="M37 174v258q0 95 33 142.5t118 76.5l222 76v160q0 45 -45 45h-17q-49 0 -49 -45v-139h-250v161q0 250 250 250h127q250 0 250 -250v-909h-262v76q-53 -45 -97.5 -66.5t-101.5 -21.5h-4q-84 0 -129 48t-45 138zM539 1343v-14q0 -54 -34 -85.5t-104 -31.5h-90
q-70 0 -103.5 31.5t-33.5 85.5v14q0 54 33.5 85.5t103.5 31.5h90q70 0 104 -31.5t34 -85.5zM266 1505l80 236h264l-149 -236h-195zM487 1329v14q0 72 -86 72h-90q-86 0 -86 -72v-14q0 -72 86 -72h90q86 0 86 72zM346 221q37 0 64 10v281l-76 -35q-23 -11 -31 -23.5t-8 -39.5
v-148q0 -24 12 -34.5t39 -10.5z" />
    <glyph glyph-name="AEacute" unicode="&#x1fc;" horiz-adv-x="1007" 
d="M967 0h-537v209h-135l-29 -209h-260l240 1434h717v-256h-246v-322h235v-256h-235v-344h250v-256zM473 1505l92 195h264l-161 -195h-195zM430 459v719l-100 -719h100z" />
    <glyph glyph-name="aeacute" unicode="&#x1fd;" horiz-adv-x="1089" 
d="M700 1159h99q250 0 250 -250v-444h-373v-199q0 -45 45 -45h24q46 0 46 45v109h258v-137q0 -250 -250 -250h-140q-156 0 -215 98q-56 -38 -83.5 -54.5t-66.5 -30t-79 -13.5h-4q-84 0 -129 48t-45 138v258q0 95 33 142.5t118 76.5l222 76v160q0 45 -45 45h-17
q-49 0 -49 -45v-139h-250v161q0 250 250 250h86q60 0 95.5 -16.5t62.5 -50.5q27 34 62 50.5t95 16.5zM442 1219l80 235h264l-149 -235h-195zM410 231v281l-76 -35q-23 -11 -31 -23.5t-8 -39.5v-148q0 -24 12 -34.5t39 -10.5q37 0 64 10zM676 885v-211h110v211q0 45 -45 45
h-20q-45 0 -45 -45z" />
    <glyph glyph-name="Oslashacute" unicode="&#x1fe;" horiz-adv-x="811" 
d="M764 254q0 -266 -266 -266h-185q-266 0 -266 266v926q0 266 266 266h185q266 0 266 -266v-926zM481 539l2 286l-153 -534v-2q0 -56 55 -56h39q55 0 55 56zM330 940l-4 -332l155 535v2q0 55 -55 55h-39q-55 0 -55 -55zM305 1505l92 195h265l-162 -195h-195z" />
    <glyph glyph-name="oslashacute" unicode="&#x1ff;" horiz-adv-x="741" 
d="M451 -12h-160q-250 0 -250 250v671q0 250 250 250h160q249 0 249 -250v-671q0 -250 -249 -250zM270 1219l80 235h264l-149 -235h-195zM432 270v381l-123 -377v-4q0 -45 47 -45h29q47 0 47 45zM356 922q-47 0 -47 -45v-72l-2 -307l125 374v5q0 45 -47 45h-29z" />
    <glyph glyph-name="Scommaaccent" unicode="&#x218;" horiz-adv-x="770" 
d="M621 743q65 -47 89.5 -96t24.5 -129v-264q0 -266 -266 -266h-160q-266 0 -266 266v305h281v-278q0 -52 51 -52h26q52 0 52 52v172q0 33 -11.5 53t-38.5 39l-245 182q-65 46 -90 96.5t-25 128.5v228q0 266 266 266h156q266 0 266 -266v-262h-280v235q0 51 -52 51h-22
q-51 0 -51 -51v-135q0 -33 11 -53t38 -39zM494 -72v-141q0 -83 -18 -127t-77 -113l-45 -51l-69 45l34 53q42 65 48 105h-82v229h209z" />
    <glyph glyph-name="scommaaccent" unicode="&#x219;" horiz-adv-x="704" 
d="M406 737v148q0 45 -46 45h-18q-45 0 -45 -45v-80q0 -24 8.5 -38t30.5 -28l209 -129q66 -42 94.5 -87t28.5 -120v-165q0 -250 -250 -250h-129q-250 0 -250 250v180h260v-156q0 -45 45 -45h23q45 0 45 45v86q0 24 -8.5 38t-30.5 28l-209 129q-66 42 -94.5 87t-28.5 120v159
q0 250 250 250h125q250 0 250 -250v-172h-260zM457 -72v-141q0 -83 -18 -127t-77 -113l-45 -51l-69 45l35 53q41 63 47 105h-82v229h209z" />
    <glyph glyph-name="schwa" unicode="&#x259;" horiz-adv-x="720" 
d="M41 238v444h373v199q0 45 -45 45h-25q-45 0 -45 -45v-109h-258v137q0 250 250 250h139q250 0 250 -250v-671q0 -250 -250 -250h-139q-250 0 -250 250zM369 217q45 0 45 45v211h-111v-211q0 -45 45 -45h21z" />
    <glyph glyph-name="circumflex" unicode="&#x2c6;" 
d="M614 1454l140 -235h-166l-76 88l-76 -88h-166l140 235h204z" />
    <glyph glyph-name="caron" unicode="&#x2c7;" 
d="M754 1454l-140 -235h-204l-140 235h166l76 -88l76 88h166z" />
    <glyph glyph-name="breve" unicode="&#x2d8;" 
d="M289 1393v61h162v-49q0 -49 49 -49h24q49 0 49 49v49h162v-61q0 -93 -41.5 -137t-128.5 -44h-106q-87 0 -128.5 44t-41.5 137z" />
    <glyph glyph-name="dotaccent" unicode="&#x2d9;" 
d="M627 1454v-235h-230v235h230z" />
    <glyph glyph-name="ring" unicode="&#x2da;" 
d="M694 1343v-14q0 -54 -33.5 -85.5t-103.5 -31.5h-90q-70 0 -103.5 31.5t-33.5 85.5v14q0 54 33.5 85.5t103.5 31.5h90q70 0 103.5 -31.5t33.5 -85.5zM643 1329v14q0 72 -86 72h-90q-86 0 -86 -72v-14q0 -72 86 -72h90q86 0 86 72z" />
    <glyph glyph-name="ogonek" unicode="&#x2db;" 
d="M514 47h158l-45 -76q-21 -38 -21 -49q0 -16 19 -16h61v-135h-139q-58 0 -83.5 25.5t-25.5 74.5v14q0 49 41 111z" />
    <glyph glyph-name="tilde" unicode="&#x2dc;" 
d="M367 1454h28q37 0 54.5 -4t39.5 -18l64 -43l7.5 -5t6.5 -4t5 -3t4.5 -2.5t4 -1.5t4 -1.5t4 -1t5.5 -0.5h6q21 0 21 25v59h141v-123q0 -112 -105 -112h-28q-37 0 -53 3.5t-39 18.5l-66 43q-6 3 -12.5 7t-9.5 5.5l-7 3.5t-8 2.5t-10 0.5q-21 0 -21 -25v-59h-141v122
q0 59 26 86t79 27z" />
    <glyph glyph-name="hungarumlaut" unicode="&#x2dd;" 
d="M500 1219l57 198l-125 -198h-133l68 235h413l-147 -235h-133z" />
    <glyph glyph-name="commaaccent" unicode="&#x326;" 
d="M618 -72v-141q0 -84 -17.5 -128t-76.5 -112l-45 -51l-69 45l34 53q42 65 48 105h-82v229h208z" />
    <glyph glyph-name="Wgrave" unicode="&#x1e80;" horiz-adv-x="1155" 
d="M731 1434l82 -762l74 762h254l-174 -1434h-316l-76 653l-71 -653h-316l-174 1434h291l74 -768l82 768h270zM606 1700l96 -195h-202l-166 195h272z" />
    <glyph glyph-name="wgrave" unicode="&#x1e81;" horiz-adv-x="1036" 
d="M645 1147l74 -619l65 619h244l-168 -1147h-274l-68 508l-67 -508h-275l-168 1147h264l64 -625l76 625h233zM553 1454l80 -235h-195l-149 235h264z" />
    <glyph glyph-name="Wacute" unicode="&#x1e82;" horiz-adv-x="1155" 
d="M731 1434l82 -762l74 762h254l-174 -1434h-316l-76 653l-71 -653h-316l-174 1434h291l74 -768l82 768h270zM498 1505l92 195h264l-162 -195h-194z" />
    <glyph glyph-name="wacute" unicode="&#x1e83;" horiz-adv-x="1036" 
d="M586 0l-68 508l-67 -508h-275l-168 1147h264l64 -625l76 625h233l74 -619l65 619h244l-168 -1147h-274zM432 1219l80 235h264l-149 -235h-195z" />
    <glyph glyph-name="Wdieresis" unicode="&#x1e84;" horiz-adv-x="1155" 
d="M731 1434l82 -762l74 762h254l-174 -1434h-316l-76 653l-71 -653h-316l-174 1434h291l74 -768l82 768h270zM565 1700v-195h-213v195h213zM631 1505v195h213v-195h-213z" />
    <glyph glyph-name="wdieresis" unicode="&#x1e85;" horiz-adv-x="1036" 
d="M586 0l-68 508l-67 -508h-275l-168 1147h264l64 -625l76 625h233l74 -619l65 619h244l-168 -1147h-274zM565 1219v235h209v-235h-209zM500 1454v-235h-209v235h209z" />
    <glyph glyph-name="Ygrave" unicode="&#x1ef2;" horiz-adv-x="759" 
d="M526 510v-510h-286v489l-242 945h299l96 -488l103 488h272zM401 1700l97 -195h-203l-166 195h272z" />
    <glyph glyph-name="ygrave" unicode="&#x1ef3;" horiz-adv-x="698" 
d="M397 -225h-256l70 305l-211 1067h268l78 -537l100 537h256zM371 1454l80 -235h-195l-150 235h265z" />
    <glyph glyph-name="enspace" unicode="&#x2002;" 
 />
    <glyph glyph-name="emspace" unicode="&#x2003;" horiz-adv-x="2048" 
 />
    <glyph glyph-name="threeperemspace" unicode="&#x2004;" horiz-adv-x="681" 
 />
    <glyph glyph-name="fourperemspace" unicode="&#x2005;" horiz-adv-x="512" 
 />
    <glyph glyph-name="thinspace" unicode="&#x2009;" horiz-adv-x="272" 
 />
    <glyph glyph-name="hairspace" unicode="&#x200a;" horiz-adv-x="153" 
 />
    <glyph glyph-name="endash" unicode="&#x2013;" horiz-adv-x="782" 
d="M18 686h746v-184h-746v184z" />
    <glyph glyph-name="emdash" unicode="&#x2014;" horiz-adv-x="1171" 
d="M18 686h1135v-184h-1135v184z" />
    <glyph glyph-name="quoteleft" unicode="&#x2018;" horiz-adv-x="335" 
d="M33 850v221q0 107 18 157.5t88 145.5l54 72l108 -31l-29 -59q-37 -77 -52 -115t-19 -76h98v-315h-266z" />
    <glyph glyph-name="quoteright" unicode="&#x2019;" horiz-adv-x="335" 
d="M303 1434v-222q0 -107 -18 -157.5t-88 -145.5l-54 -71l-108 30l28 60q39 77 53.5 114t18.5 76h-98v316h266z" />
    <glyph glyph-name="quotesinglbase" unicode="&#x201a;" horiz-adv-x="335" 
d="M303 315v-221q0 -107 -18 -157.5t-88 -145.5l-54 -72l-108 31l28 60q39 79 53.5 116t18.5 74h-98v315h266z" />
    <glyph glyph-name="quotedblleft" unicode="&#x201c;" horiz-adv-x="645" 
d="M350 850v221q0 109 17 159t86 144l53 72l104 -31l-28 -59q-38 -79 -53 -116.5t-19 -74.5h98v-315h-258zM33 850v221q0 109 16.5 159.5t85.5 143.5l53 72l105 -31l-29 -59q-37 -77 -52 -115t-19 -76h98v-315h-258z" />
    <glyph glyph-name="quotedblright" unicode="&#x201d;" horiz-adv-x="645" 
d="M295 1434v-222q0 -110 -16.5 -160t-85.5 -143l-54 -71l-104 30l28 60q39 77 53.5 114t18.5 76h-98v316h258zM612 1434v-222q0 -110 -16.5 -160t-85.5 -143l-53 -71l-105 30l29 60q39 77 53.5 114t18.5 76h-99v316h258z" />
    <glyph glyph-name="quotedblbase" unicode="&#x201e;" horiz-adv-x="645" 
d="M295 315v-221q0 -109 -16.5 -159.5t-85.5 -143.5l-54 -72l-104 31l28 60q39 79 53.5 116t18.5 74h-98v315h258zM612 315v-221q0 -109 -16.5 -159.5t-85.5 -143.5l-53 -72l-105 31l29 60q39 79 53.5 116t18.5 74h-99v315h258z" />
    <glyph glyph-name="dagger" unicode="&#x2020;" horiz-adv-x="483" 
d="M309 713h-135l4 436l-158 -6v131l158 -6l-4 170h135l-6 -170l160 6v-131l-160 6z" />
    <glyph glyph-name="daggerdbl" unicode="&#x2021;" horiz-adv-x="483" 
d="M176 926l2 223l-158 -6v131l158 -6l-4 170h135l-6 -170l160 6v-131l-160 6l4 -223l-4 -221l160 6v-131l-160 6l6 -170h-135l4 170l-158 -6v131l158 -6z" />
    <glyph glyph-name="bullet" unicode="&#x2022;" horiz-adv-x="487" 
d="M432 817v-192q0 -138 -151 -138h-74q-152 0 -152 138v192q0 137 152 137h74q151 0 151 -137z" />
    <glyph glyph-name="ellipsis" unicode="&#x2026;" horiz-adv-x="1019" 
d="M303 315v-315h-266v315h266zM643 315v-315h-266v315h266zM983 315v-315h-266v315h266z" />
    <glyph glyph-name="guilsinglleft" unicode="&#x2039;" horiz-adv-x="399" 
d="M6 594l166 338h215l-137 -338l137 -338h-215z" />
    <glyph glyph-name="guilsinglright" unicode="&#x203a;" horiz-adv-x="399" 
d="M227 932l166 -338l-166 -338h-215l138 338l-138 338h215z" />
    <glyph glyph-name="Euro" unicode="&#x20ac;" horiz-adv-x="806" 
d="M18 903h76v277q0 266 266 266h140q266 0 266 -266v-203h-272v172q0 51 -52 51h-16q-51 0 -51 -51v-246h291v-143h-291v-68h291v-143h-291v-264q0 -52 51 -52h20q52 0 52 52v186h272v-217q0 -266 -266 -266h-144q-266 0 -266 266v295h-76v143h76v68h-76v143z" />
    <glyph glyph-name="published" unicode="&#x2117;" horiz-adv-x="1003" 
d="M948 1110v-786q0 -178 -77 -257t-242 -79h-254q-165 0 -242.5 79t-77.5 257v786q0 178 77.5 257t242.5 79h254q165 0 242 -79t77 -257zM895 324v786q0 152 -64.5 219.5t-201.5 67.5h-254q-137 0 -201.5 -67.5t-64.5 -219.5v-786q0 -152 64.5 -219.5t201.5 -67.5h254
q137 0 201.5 67.5t64.5 219.5zM471 530v-337h-207v1050h303q195 0 195 -184v-344q0 -185 -195 -185h-96zM555 1020q0 35 -39 35h-45v-336h45q39 0 39 35v266z" />
    <glyph glyph-name="servicemark" unicode="&#x2120;" horiz-adv-x="983" 
d="M602 809l-55 432v-432h-107v625h187l47 -412l43 412h190v-625h-133v422l-55 -422h-117zM201 1044v-106q0 -23 24 -23h19q26 0 26 23v63q0 25 -24 41l-117 78q-33 21 -45 42.5t-12 54.5v108q0 115 129 115h67q127 0 127 -115v-115h-125v95q0 22 -26 22h-19q-24 0 -24 -22
v-50q0 -26 24 -43l119 -79q30 -20 41.5 -42t11.5 -57v-116q0 -115 -127 -115h-69q-129 0 -129 115v126h129z" />
    <glyph glyph-name="trademark" unicode="&#x2122;" horiz-adv-x="962" 
d="M698 809h-116l-56 432v-432h-106v625h186l47 -412l43 412h191v-625h-133v422zM289 809h-135v506h-95v119h324v-119h-94v-506z" />
    <glyph glyph-name="minus" unicode="&#x2212;" horiz-adv-x="643" 
d="M20 823h603v-190h-603v190z" />
    <glyph glyph-name="f_f" unicode="&#xfb00;" horiz-adv-x="974" 
d="M82 1147v84q0 223 223 223h178v-221h-92q-39 0 -39 -39v-47h125v-225h-125v-922h-270v922h-64v225h64zM569 1147v84q0 223 224 223h178v-221h-92q-39 0 -39 -39v-47h125v-225h-125v-922h-271v922h-63v225h63z" />
    <glyph glyph-name="fi" unicode="&#xfb01;" horiz-adv-x="851" 
d="M82 1147v84q0 223 223 223h178v-221h-92q-39 0 -39 -39v-47h125v-225h-125v-922h-270v922h-64v225h64zM530 1219v235h279v-235h-279zM535 0v1147h270v-1147h-270z" />
    <glyph glyph-name="fl" unicode="&#xfb02;" horiz-adv-x="851" 
d="M82 1147v84q0 223 223 223h178v-221h-92q-39 0 -39 -39v-47h125v-225h-125v-922h-270v922h-64v225h64zM535 0v1454h270v-1454h-270z" />
    <glyph glyph-name="f_f_i" unicode="&#xfb03;" horiz-adv-x="1339" 
d="M82 1147v84q0 223 223 223h178v-221h-92q-39 0 -39 -39v-47h125v-225h-125v-922h-270v922h-64v225h64zM569 1147v84q0 223 224 223h178v-221h-92q-39 0 -39 -39v-47h125v-225h-125v-922h-271v922h-63v225h63zM1018 1219v235h278v-235h-278zM1022 0v1147h270v-1147h-270z
" />
    <glyph glyph-name="f_f_l" unicode="&#xfb04;" horiz-adv-x="1339" 
d="M82 1147v84q0 223 223 223h178v-221h-92q-39 0 -39 -39v-47h125v-225h-125v-922h-270v922h-64v225h64zM569 1147v84q0 223 224 223h178v-221h-92q-39 0 -39 -39v-47h125v-225h-125v-922h-271v922h-63v225h63zM1022 0v1454h270v-1454h-270z" />
    <glyph glyph-name="Q.alt" horiz-adv-x="811" 
d="M764 1180v-852q0 -71 -19 -133l95 -60l-123 -153l-64 67q-73 -61 -192 -61h-148q-266 0 -266 266v926q0 266 266 266h185q266 0 266 -266zM477 1149q0 51 -51 51h-41q-51 0 -51 -51v-873q0 -51 51 -51h41q22 0 37 11l-101 90l78 96l37 -31v758z" />
    <glyph glyph-name="a.alt" horiz-adv-x="745" 
d="M700 1147v-1147h-266v80q-102 -92 -201 -92h-4q-90 0 -139 50.5t-49 147.5v775q0 97 49 147.5t139 50.5h4q96 0 197 -84v72h270zM430 238v671q-35 13 -65 13q-29 0 -41.5 -10.5t-12.5 -34.5v-607q0 -24 12.5 -34.5t41.5 -10.5q30 0 65 13z" />
    <glyph glyph-name="y.alt" horiz-adv-x="698" 
d="M397 -225h-256l70 305l-211 1067h268l78 -537l100 537h256z" />
    <glyph glyph-name="aacute.alt" horiz-adv-x="745" 
d="M700 1147v-1147h-266v80q-102 -92 -201 -92h-4q-90 0 -139 50.5t-49 147.5v775q0 97 49 147.5t139 50.5h4q96 0 197 -84v72h270zM430 238v671q-35 13 -65 13q-29 0 -41.5 -10.5t-12.5 -34.5v-607q0 -24 12.5 -34.5t41.5 -10.5q30 0 65 13zM279 1219l79 235h265l-150 -235
h-194z" />
    <glyph glyph-name="abreve.alt" horiz-adv-x="745" 
d="M700 1147v-1147h-266v80q-102 -92 -201 -92h-4q-90 0 -139 50.5t-49 147.5v775q0 97 49 147.5t139 50.5h4q96 0 197 -84v72h270zM430 238v671q-35 13 -65 13q-29 0 -41.5 -10.5t-12.5 -34.5v-607q0 -24 12.5 -34.5t41.5 -10.5q30 0 65 13zM156 1393v61h161v-49
q0 -49 50 -49h24q49 0 49 49v49h162v-61q0 -93 -41.5 -137t-128.5 -44h-106q-87 0 -128.5 44t-41.5 137z" />
    <glyph glyph-name="acircumflex.alt" horiz-adv-x="745" 
d="M700 1147v-1147h-266v80q-102 -92 -201 -92h-4q-90 0 -139 50.5t-49 147.5v775q0 97 49 147.5t139 50.5h4q96 0 197 -84v72h270zM430 238v671q-35 13 -65 13q-29 0 -41.5 -10.5t-12.5 -34.5v-607q0 -24 12.5 -34.5t41.5 -10.5q30 0 65 13zM481 1454l140 -235h-166l-76 88
l-76 -88h-166l139 235h205z" />
    <glyph glyph-name="adieresis.alt" horiz-adv-x="745" 
d="M700 1147v-1147h-266v80q-102 -92 -201 -92h-4q-90 0 -139 50.5t-49 147.5v775q0 97 49 147.5t139 50.5h4q96 0 197 -84v72h270zM430 238v671q-35 13 -65 13q-29 0 -41.5 -10.5t-12.5 -34.5v-607q0 -24 12.5 -34.5t41.5 -10.5q30 0 65 13zM412 1219v235h209v-235h-209z
M346 1454v-235h-209v235h209z" />
    <glyph glyph-name="agrave.alt" horiz-adv-x="745" 
d="M700 1147v-1147h-266v80q-102 -92 -201 -92h-4q-90 0 -139 50.5t-49 147.5v775q0 97 49 147.5t139 50.5h4q96 0 197 -84v72h270zM430 238v671q-35 13 -65 13q-29 0 -41.5 -10.5t-12.5 -34.5v-607q0 -24 12.5 -34.5t41.5 -10.5q30 0 65 13zM399 1454l80 -235h-194
l-150 235h264z" />
    <glyph glyph-name="amacron.alt" horiz-adv-x="745" 
d="M700 1147v-1147h-266v80q-102 -92 -201 -92h-4q-90 0 -139 50.5t-49 147.5v775q0 97 49 147.5t139 50.5h4q96 0 197 -84v72h270zM430 238v671q-35 13 -65 13q-29 0 -41.5 -10.5t-12.5 -34.5v-607q0 -24 12.5 -34.5t41.5 -10.5q30 0 65 13zM139 1413h479v-180h-479v180z
" />
    <glyph glyph-name="aogonek.alt" horiz-adv-x="745" 
d="M700 1147v-1147h-38l-17 -29q-20 -36 -20 -49q0 -16 18 -16h62v-135h-140q-58 0 -83 25.5t-25 74.5v14q0 49 41 111l2 4h-66v80q-102 -92 -201 -92h-4q-90 0 -139 50.5t-49 147.5v775q0 97 49 147.5t139 50.5h4q96 0 197 -84v72h270zM430 238v671q-35 13 -65 13
q-29 0 -41.5 -10.5t-12.5 -34.5v-607q0 -24 12.5 -34.5t41.5 -10.5q30 0 65 13z" />
    <glyph glyph-name="aring.alt" horiz-adv-x="745" 
d="M700 1147v-1147h-266v80q-102 -92 -201 -92h-4q-90 0 -139 50.5t-49 147.5v775q0 97 49 147.5t139 50.5h4q96 0 197 -84v72h270zM430 238v671q-35 13 -65 13q-29 0 -41.5 -10.5t-12.5 -34.5v-607q0 -24 12.5 -34.5t41.5 -10.5q30 0 65 13zM561 1343v-14
q0 -54 -33.5 -85.5t-103.5 -31.5h-90q-70 0 -103.5 31.5t-33.5 85.5v14q0 54 33.5 85.5t103.5 31.5h90q70 0 103.5 -31.5t33.5 -85.5zM510 1329v14q0 72 -86 72h-90q-86 0 -86 -72v-14q0 -72 86 -72h90q86 0 86 72z" />
    <glyph glyph-name="aringacute.alt" horiz-adv-x="745" 
d="M700 1147v-1147h-266v80q-102 -92 -201 -92h-4q-90 0 -139 50.5t-49 147.5v775q0 97 49 147.5t139 50.5h4q96 0 197 -84v72h270zM430 238v671q-35 13 -65 13q-29 0 -41.5 -10.5t-12.5 -34.5v-607q0 -24 12.5 -34.5t41.5 -10.5q30 0 65 13zM561 1343v-14
q0 -54 -33.5 -85.5t-103.5 -31.5h-90q-70 0 -103.5 31.5t-33.5 85.5v14q0 54 33.5 85.5t103.5 31.5h90q70 0 103.5 -31.5t33.5 -85.5zM510 1329v14q0 72 -86 72h-90q-86 0 -86 -72v-14q0 -72 86 -72h90q86 0 86 72zM289 1505l80 236h264l-150 -236h-194z" />
    <glyph glyph-name="atilde.alt" horiz-adv-x="745" 
d="M700 1147v-1147h-266v80q-102 -92 -201 -92h-4q-90 0 -139 50.5t-49 147.5v775q0 97 49 147.5t139 50.5h4q96 0 197 -84v72h270zM233 1454h29q37 0 54.5 -4t39.5 -18l64 -43l7.5 -5t6.5 -4t5 -3t4.5 -2.5t4 -1.5t4 -1.5t4 -1t5.5 -0.5h6q20 0 20 25v59h142v-123
q0 -112 -105 -112h-28q-37 0 -54 4t-39 18l-65 43q-6 3 -12.5 7t-9.5 5.5l-7 3.5t-8 2.5t-10 0.5q-21 0 -21 -25v-59h-141v122q0 59 25.5 86t78.5 27zM430 238v671q-35 13 -65 13q-29 0 -41.5 -10.5t-12.5 -34.5v-607q0 -24 12.5 -34.5t41.5 -10.5q30 0 65 13z" />
    <glyph glyph-name="Gcommaaccent.alt" horiz-adv-x="811" 
d="M496 -72v-57q0 -67 -23 -117.5t-67 -99.5h-142q27 68 36 109t9 96v69h187zM483 569h-90v240h371v-555q0 -266 -266 -266h-185q-266 0 -266 266v926q0 266 266 266h181q266 0 266 -266v-275h-283v244q0 51 -51 51h-41q-51 0 -51 -51v-864q0 -52 51 -52h47q51 0 51 52v284z
" />
    <glyph glyph-name="gcommaaccent.alt" horiz-adv-x="745" 
d="M700 1147v-1141q0 -123 -59 -181t-182 -58h-199q-111 0 -164 52.5t-53 162.5v71h242v-41q0 -45 45 -45h59q45 0 45 45v172q-100 -80 -201 -80h-4q-90 0 -139 51t-49 148v658q0 97 49 147.5t139 50.5h4q101 0 201 -80v68h266zM430 344v565q-35 13 -65 13
q-29 0 -41.5 -10.5t-12.5 -34.5v-500q0 -24 12.5 -34.5t41.5 -10.5q33 0 65 12zM291 1221v57q0 67 23 117.5t67 99.5h141q-27 -68 -36 -109t-9 -96v-69h-186z" />
    <glyph glyph-name="Kcommaaccent.alt" horiz-adv-x="790" 
d="M786 0h-303l-145 678v-678h-287v1434h287v-674l160 674h297l-189 -705zM479 -72v-57q0 -67 -23 -117.5t-67 -99.5h-141q27 68 36 109t9 96v69h186z" />
    <glyph glyph-name="kcommaaccent.alt" horiz-adv-x="718" 
d="M440 1147h281l-148 -561l142 -586h-287l-113 543v-543h-270v1454h270v-848zM451 -72v-57q0 -67 -23 -117t-68 -100h-141q27 68 36 109t9 96v69h187z" />
    <glyph glyph-name="Lcommaaccent.alt" horiz-adv-x="569" 
d="M387 -72v-57q0 -67 -23 -117.5t-67 -99.5h-141q27 68 36 109t9 96v69h186zM51 1434h287v-1178h207v-256h-494v1434z" />
    <glyph glyph-name="lcommaaccent.alt" horiz-adv-x="364" 
d="M270 -72v-57q0 -67 -23 -117.5t-67 -99.5h-141q27 68 36 109t9 96v69h186zM47 0v1454h270v-1454h-270z" />
    <glyph glyph-name="Ncommaaccent.alt" horiz-adv-x="802" 
d="M473 0l-182 780l4 -364l4 -416h-248v1434h293l166 -711l-4 414l-2 297h248v-1434h-279zM479 -72v-57q0 -67 -23 -117.5t-67 -99.5h-141q27 68 36 109t9 96v69h186z" />
    <glyph glyph-name="ncommaaccent.alt" horiz-adv-x="743" 
d="M45 0v1147h266v-76q50 43 95.5 65.5t101.5 22.5h20q83 0 127.5 -47t44.5 -139v-973h-270v877q0 24 -12 34.5t-41 10.5q-27 0 -62 -13v-909h-270zM463 -72v-57q0 -67 -23 -117.5t-67 -99.5h-142q27 68 36 109t9 96v69h187z" />
    <glyph glyph-name="Oslash.alt" horiz-adv-x="811" 
d="M764 254q0 -266 -266 -266h-164q-60 0 -109 12l-22 -66h-162l53 152q-47 62 -47 168v926q0 266 266 266h164q61 0 107 -12l22 65h164l-53 -151q47 -62 47 -168v-926zM330 967l-4 -359l155 535v2q0 55 -55 55h-39q-55 0 -55 -55zM481 543l2 282l-153 -534v-2q0 -56 55 -56
h39q55 0 55 56z" />
    <glyph glyph-name="oslash.alt" horiz-adv-x="741" 
d="M451 -12h-144q-57 0 -100 12l-23 -66h-143l49 138q-49 61 -49 166v671q0 250 250 250h143q54 0 101 -12l22 65h143l-51 -139q51 -63 51 -164v-671q0 -250 -249 -250zM432 270v381l-123 -377v-4q0 -45 47 -45h29q47 0 47 45zM385 922h-29q-47 0 -47 -45v-56l-2 -323
l125 374v5q0 45 -47 45z" />
    <glyph glyph-name="Oslashacute.alt" horiz-adv-x="811" 
d="M764 254q0 -266 -266 -266h-164q-60 0 -109 12l-22 -66h-162l53 152q-47 62 -47 168v926q0 266 266 266h164q61 0 107 -12l22 65h164l-53 -151q47 -62 47 -168v-926zM330 967l-4 -359l155 535v2q0 55 -55 55h-39q-55 0 -55 -55zM481 543l2 282l-153 -534v-2q0 -56 55 -56
h39q55 0 55 56zM305 1505l92 195h265l-162 -195h-195z" />
    <glyph glyph-name="oslashacute.alt" horiz-adv-x="741" 
d="M451 -12h-144q-57 0 -100 12l-23 -66h-143l49 138q-49 61 -49 166v671q0 250 250 250h143q54 0 101 -12l22 65h143l-51 -139q51 -63 51 -164v-671q0 -250 -249 -250zM270 1219l80 235h264l-149 -235h-195zM432 270v381l-123 -377v-4q0 -45 47 -45h29q47 0 47 45zM385 922
h-29q-47 0 -47 -45v-56l-2 -323l125 374v5q0 45 -47 45z" />
    <glyph glyph-name="Rcommaaccent.alt" horiz-adv-x="792" 
d="M489 -72v-57q0 -67 -23 -117.5t-67 -99.5h-141q27 68 36 109t9 96v69h186zM623 678q66 -19 95.5 -62.5t29.5 -121.5v-494h-287v492q0 51 -51 51h-72v-543h-287v1434h428q266 0 266 -267v-276q0 -168 -122 -213zM459 1133q0 51 -51 51h-70v-398h70q51 0 51 52v295z" />
    <glyph glyph-name="rcommaaccent.alt" horiz-adv-x="495" 
d="M272 -72v-57q0 -67 -23 -117.5t-67 -99.5h-141q27 68 36 109t9 96v69h186zM45 0v1147h266v-125q35 72 72 103.5t94 31.5v-293q-104 -9 -162 -61v-803h-270z" />
    <glyph glyph-name="Scommaaccent.alt" horiz-adv-x="770" 
d="M479 -72v-57q0 -67 -23 -117.5t-67 -99.5h-141q27 68 36 109t9 96v69h186zM621 743q65 -47 89.5 -96t24.5 -129v-264q0 -266 -266 -266h-160q-266 0 -266 266v305h281v-278q0 -52 51 -52h26q52 0 52 52v172q0 33 -11.5 53t-38.5 39l-245 182q-65 46 -90 96.5t-25 128.5
v228q0 266 266 266h156q266 0 266 -266v-262h-280v235q0 51 -52 51h-22q-51 0 -51 -51v-135q0 -33 11 -53t38 -39z" />
    <glyph glyph-name="scommaaccent.alt" horiz-adv-x="704" 
d="M440 -72v-57q0 -67 -23 -117.5t-67 -99.5h-141q27 68 36 109t9 96v69h186zM406 737v148q0 45 -46 45h-18q-45 0 -45 -45v-80q0 -24 8.5 -38t30.5 -28l209 -129q66 -42 94.5 -87t28.5 -120v-165q0 -250 -250 -250h-129q-250 0 -250 250v180h260v-156q0 -45 45 -45h23
q45 0 45 45v86q0 24 -8.5 38t-30.5 28l-209 129q-66 42 -94.5 87t-28.5 120v159q0 250 250 250h125q250 0 250 -250v-172h-260z" />
    <glyph glyph-name="Tcommaaccent.alt" horiz-adv-x="675" 
d="M428 -72v-57q0 -67 -23 -117.5t-67 -99.5h-141q27 68 36 109t9 96v69h186zM481 0h-286v1178h-175v256h635v-256h-174v-1178z" />
    <glyph glyph-name="tcommaaccent.alt" horiz-adv-x="477" 
d="M328 -72v-57q0 -67 -23 -117.5t-67 -99.5h-142q27 68 36 109t9 96v69h187zM358 922v-922h-270v922h-74v225h74v184h270v-184h107v-225h-107z" />
    <glyph glyph-name="yacute.alt" horiz-adv-x="698" 
d="M397 -225h-256l70 305l-211 1067h268l78 -537l100 537h256zM250 1219l80 235h264l-150 -235h-194z" />
    <glyph glyph-name="ycircumflex.alt" horiz-adv-x="698" 
d="M397 -225h-256l70 305l-211 1067h268l78 -537l100 537h256zM453 1454l139 -235h-166l-76 88l-76 -88h-165l139 235h205z" />
    <glyph glyph-name="ydieresis.alt" horiz-adv-x="698" 
d="M397 -225h-256l70 305l-211 1067h268l78 -537l100 537h256zM383 1219v235h209v-235h-209zM317 1454v-235h-208v235h208z" />
    <glyph glyph-name="ygrave.alt" horiz-adv-x="698" 
d="M397 -225h-256l70 305l-211 1067h268l78 -537l100 537h256zM371 1454l80 -235h-195l-150 235h265z" />
    <glyph glyph-name="comma.alt" horiz-adv-x="339" 
d="M303 315v-104q0 -65 -9.5 -131t-29 -132t-29 -93.5t-28.5 -79.5h-166q33 170 33 422v118h229z" />
    <glyph glyph-name="semicolon.alt" horiz-adv-x="339" 
d="M303 315v-104q0 -65 -9.5 -131t-29 -132t-29 -93.5t-28.5 -79.5h-166q33 170 33 422v118h229zM303 1147v-316h-266v316h266z" />
    <glyph glyph-name="colon.fig" horiz-adv-x="339" 
d="M303 602v-315h-266v315h266zM303 1147v-316h-266v316h266z" />
    <glyph glyph-name="ampersand.alt" horiz-adv-x="804" 
d="M793 608h-64v-354q0 -266 -266 -266h-156q-266 0 -266 266v303q0 78 29 121.5t94 62.5q-119 45 -119 213v226q0 266 266 266h148q266 0 266 -266v-207h-276v176q0 51 -52 51h-16q-51 0 -51 -51v-250q0 -51 51 -51h412v-240zM326 557v-272q0 -52 51 -52h24q52 0 52 52v323
h-76q-51 0 -51 -51z" />
    <glyph glyph-name="quotedblleft.alt" horiz-adv-x="645" 
d="M350 850v141q0 208 72 443h178q-19 -100 -23 -180.5t-4 -241.5v-162h-223zM33 850v141q0 212 96 443h174q-24 -111 -34.5 -202t-10.5 -220v-162h-225z" />
    <glyph glyph-name="quotedblright.alt" horiz-adv-x="645" 
d="M295 1434v-142q0 -207 -72 -442h-178q19 100 23 180.5t4 241.5v162h223zM612 1434v-142q0 -211 -96 -442h-174q24 111 34.5 202t10.5 220v162h225z" />
    <glyph glyph-name="quoteleft.alt" horiz-adv-x="335" 
d="M33 850v141q0 207 98 443h170q-39 -181 -39 -422v-162h-229z" />
    <glyph glyph-name="quoteright.alt" horiz-adv-x="335" 
d="M303 1434v-142q0 -206 -98 -442h-170q39 181 39 422v162h229z" />
    <glyph glyph-name="quotedblbase.alt" horiz-adv-x="645" 
d="M295 315v-141q0 -207 -72 -442h-178q19 100 23 180.5t4 241.5v161h223zM612 315v-141q0 -211 -96 -442h-174q24 111 34.5 202t10.5 220v161h225z" />
    <glyph glyph-name="quotesinglbase.alt" horiz-adv-x="335" 
d="M303 315v-141q0 -206 -98 -442h-170q39 181 39 422v161h229z" />
    <glyph glyph-name="guillemotleft.cap" horiz-adv-x="583" 
d="M6 729l141 358h185l-113 -358l113 -358h-185zM266 729l127 358h185l-99 -358l99 -358h-185z" />
    <glyph glyph-name="guillemotright.cap" horiz-adv-x="583" 
d="M436 1087l142 -358l-142 -358h-184l113 358l-113 358h184zM190 1087l127 -358l-127 -358h-184l98 358l-98 358h184z" />
    <glyph glyph-name="guilsinglleft.cap" horiz-adv-x="399" 
d="M6 729l174 358h215l-145 -358l145 -358h-215z" />
    <glyph glyph-name="guilsinglright.cap" horiz-adv-x="399" 
d="M219 1087l174 -358l-174 -358h-215l146 358l-146 358h215z" />
    <glyph glyph-name="hyphen.cap" horiz-adv-x="479" 
d="M20 858h439v-256h-439v256z" />
    <glyph glyph-name="endash.cap" horiz-adv-x="782" 
d="M18 821h746v-184h-746v184z" />
    <glyph glyph-name="emdash.cap" horiz-adv-x="1171" 
d="M18 821h1135v-184h-1135v184z" />
    <glyph glyph-name="at.alt" 
d="M809 199h-94q-104 0 -150 75q-43 -42 -79 -59.5t-85 -17.5q-69 0 -109 42.5t-40 122.5v230q0 88 30 135.5t105 73.5l164 55v166q0 33 -33 33h-16q-33 0 -33 -33v-131h-207v168q0 184 199 184h108q195 0 195 -184v-748q0 -23 10 -33t33 -10h6q41 0 61.5 24t20.5 81v739
q0 143 -59 204.5t-187 61.5h-274q-128 0 -187 -61.5t-59 -204.5v-788q0 -143 59 -205t187 -62h516v-69h-516q-165 0 -242.5 79t-77.5 257v788q0 178 77.5 257t242.5 79h274q165 0 242.5 -79t77.5 -257v-739q0 -88 -38.5 -131t-121.5 -43zM506 397q14 0 45 9v262l-53 -23
q-39 -16 -39 -67v-140q0 -41 47 -41z" />
    <glyph glyph-name="registered.alt" horiz-adv-x="1003" 
d="M948 1110v-786q0 -178 -77 -257t-242 -79h-254q-165 0 -242.5 79t-77.5 257v786q0 178 77.5 257t242.5 79h254q165 0 242 -79t77 -257zM895 324v786q0 152 -64.5 219.5t-201.5 67.5h-254q-137 0 -201.5 -67.5t-64.5 -219.5v-786q0 -152 64.5 -219.5t201.5 -67.5h254
q137 0 201.5 67.5t64.5 219.5zM674 678q49 -12 70.5 -42t21.5 -85v-358h-209v344q0 36 -37 36h-53v-380h-209v1050h311q195 0 195 -184v-234q0 -115 -90 -147zM555 1016q0 37 -37 37h-51v-293h51q37 0 37 35v221z" />
    <glyph glyph-name="percent.alt" horiz-adv-x="1175" 
d="M299 653h-68q-100 0 -147 50.5t-47 158.5v375q0 108 47 158.5t147 50.5h68q100 0 147.5 -50.5t47.5 -158.5v-375q0 -108 -47.5 -158.5t-147.5 -50.5zM877 780h67q100 0 147.5 -50.5t47.5 -158.5v-374q0 -108 -47.5 -158.5t-147.5 -50.5h-67q-100 0 -147.5 50.5
t-47.5 158.5v374q0 108 47.5 158.5t147.5 50.5zM905 1438l-258 -748l-215 -694h-164l260 747l211 695h166zM276 1266h-22q-11 0 -18 -9t-7 -22v-373q0 -13 7 -22t18 -9h22q11 0 18 9t7 22v373q0 13 -7 22t-18 9zM922 600h-23q-11 0 -18 -9t-7 -22v-372q0 -13 7 -22t18 -9h23
q10 0 17 8.5t7 22.5v372q0 14 -7 22.5t-17 8.5z" />
    <glyph glyph-name="NUL" horiz-adv-x="0" 
 />
    <glyph glyph-name="hfjslug" horiz-adv-x="1421" 
d="M1319 -410h-426l-16 29h-334l-17 -29h-424v621q28 0 47 18.5t19 46.5q0 27 -19.5 46.5t-46.5 19.5v1135h205l62 161h684l59 -161h207v-1887zM819 1153v-352h31v160h78v28h-78v135h88v29h-119zM377 1153v-352h31v162h96v-162h31v352h-31v-162h-96v162h-31zM942 807
q20 -8 43 -8q64 0 64 73v281h-33v-281q0 -45 -33 -45q-13 0 -41 11v-31zM760 952l-27 6q-9 -39 -16 -61h-2l-33 64q47 44 47 86q0 28 -14 45.5t-41 17.5q-26 0 -42 -18t-16 -45q0 -9 1 -16.5t4.5 -16.5t6 -13.5t9 -16.5t8.5 -17q-47 -38 -47 -97q0 -34 16.5 -54.5
t42.5 -20.5q41 0 60 49h2l24 -49l25 12l-35 65q16 40 27 80zM1071 662v-95h16v25l17 16l31 -41h20l-41 54l37 41h-21l-40 -50h-3v50h-16zM999 598l21 -31h18l-24 35q20 8 20 29q0 13 -10 22t-25 9h-41v-95h17v31h24zM872 565q22 0 36 14.5t14 34.5q0 19 -14.5 34.5
t-35.5 15.5t-35 -15t-14 -35q0 -21 14 -35t35 -14zM758 616l-27 46h-18l37 -60v-35h16v35l37 60h-19zM395 662v-95h70v15h-53v26h47v15h-47v24h53v15h-70zM270 662v-95h17v66l51 -66h14v95h-16v-66l-51 66h-15zM494 662l28 -97h17l22 70h2l23 -70h16l29 97h-17l-20 -72h-2
l-23 72h-14l-23 -72h-2l-20 72h-16zM670 981q-25 48 -25 66q0 17 8.5 27.5t20.5 10.5q26 0 26 -38q0 -31 -30 -66zM700 866q-16 -43 -41 -43q-14 0 -23 14t-9 37q0 40 32 72zM997 612h-22v35h22q21 0 21 -16q0 -8 -6 -13.5t-15 -5.5zM872 580q-14 0 -23 10t-9 24q0 13 9 24
t23 11t23.5 -11t9.5 -24q0 -14 -9 -24t-24 -10z" />
    <glyph glyph-name="i.dot" horiz-adv-x="364" 
d="M43 1219v235h279v-235h-279zM47 0v1147h270v-1147h-270z" />
    <glyph glyph-name="caron.alt" 
d="M401 1192v262h172l-69 -262h-103z" />
    <glyph glyph-name="acute.cap" 
d="M360 1505l93 195h264l-162 -195h-195z" />
    <glyph glyph-name="hungarumlaut.cap" 
d="M500 1505l67 164l-135 -164h-141l80 195h430l-160 -195h-141z" />
    <glyph glyph-name="grave.cap" 
d="M612 1700l97 -195h-203l-166 195h272z" />
    <glyph glyph-name="circumflex.cap" 
d="M614 1716l148 -211h-166l-84 70l-84 -70h-166l148 211h204z" />
    <glyph glyph-name="caron.cap" 
d="M762 1716l-148 -211h-204l-148 211h166l84 -69l84 69h166z" />
    <glyph glyph-name="breve.cap" 
d="M285 1667v49h161v-33q0 -41 50 -41h32q50 0 50 41v33h161v-49q0 -87 -41.5 -127.5t-128.5 -40.5h-114q-87 0 -128.5 40.5t-41.5 127.5z" />
    <glyph glyph-name="tilde.cap" 
d="M362 1720h33q57 0 97 -22l59 -33q31 -16 53 -16q21 0 21 24v47h141v-102q0 -113 -104 -113h-33q-34 0 -51 4.5t-43 18.5l-62 33q-31 16 -53 16q-21 0 -21 -25v-47h-141v103q0 59 25.5 85.5t78.5 26.5z" />
    <glyph glyph-name="macron.cap" 
d="M272 1679h480v-159h-480v159z" />
    <glyph glyph-name="dieresis.cap" 
d="M545 1505v195h213v-195h-213zM479 1700v-195h-213v195h213z" />
    <glyph glyph-name="dotaccent.cap" 
d="M629 1700v-195h-234v195h234z" />
    <glyph glyph-name="ring.cap" 
d="M733 1624v-10q0 -53 -35 -84t-106 -31h-160q-71 0 -106 31t-35 84v10q0 53 35 84t106 31h160q71 0 106 -31t35 -84zM678 1614v10q0 66 -86 66h-160q-86 0 -86 -66v-10q0 -66 86 -66h160q86 0 86 66z" />
    <glyph glyph-name="commaaccent.alt" 
d="M604 -72v-57q0 -67 -23 -117.5t-67 -99.5h-141q27 68 36 109t9 96v69h186z" />
    </font>
</defs>
</svg>
